<?xml version="1.0" encoding="UTF-8" standalone="no"?>
<!DOCTYPE svg PUBLIC "-//W3C//DTD SVG 1.1//EN" "http://www.w3.org/Graphics/SVG/1.1/DTD/svg11.dtd">
<svg xmlns="http://www.w3.org/2000/svg">
<metadata/>
<defs>
<font id="PFAgoraSlabProLightRegular" horiz-adv-x="1105">
<font-face units-per-em="2048" ascent="1536" descent="-512"/>
<missing-glyph horiz-adv-x="532"/>
<glyph unicode="ﬁ" horiz-adv-x="1071" d="M41 0v90h149v815h-137v62l140 34v179q0 301 352 301q132 0 284 -31l-18 -94q-159 26 -241.5 26t-130.5 -11t-79 -39q-61 -52 -61 -193v-142h561l-2 -903h152v-67q-77 -35 -139 -35t-90.5 16.5t-28.5 81.5v815h-453v-815h139v-90h-397z"/>
<glyph unicode="ﬂ" horiz-adv-x="1097" d="M41 0v90h149v815h-137v62l140 34v158q0 301 352 301q107 0 258 -26l84 18v-1362h149v-90h-395v90h137v1249q-131 23 -211 23t-128 -11.5t-79 -38.5q-61 -53 -61 -194v-121h311v-92h-311v-815h133v-90h-391z"/>
<glyph unicode="ﬃ" horiz-adv-x="1640" d="M41 0v90h149v815h-137v62l140 34v129q0 173 111 258q98 74 250 74t286 -39q85 82 272 82q135 0 285 -30l-19 -95q-165 27 -244.5 27t-127.5 -11.5t-80 -39.5q-60 -52 -60 -193v-166h564l-3 -903h152v-67q-77 -35 -138.5 -35t-90.5 16.5t-29 81.5v815h-455v-815h164v-90 h-414v90h142v815h-459v-815h135v-90h-393zM299 999l461 -2v207q0 76 22 133q-93 27 -185.5 27t-148 -15.5t-88.5 -48.5q-61 -61 -61 -210v-91z"/>
<glyph unicode="ﬄ" horiz-adv-x="1667" d="M41 0v90h149v815h-137v62l140 34v129q0 173 111 258q98 74 250 74t286 -39q92 82 274 82q110 0 258 -26l84 18v-1407h150v-90h-396v90h138v1294q-131 23 -211.5 23t-128 -11.5t-79.5 -39.5q-61 -52 -61 -193l-2 -166h314v-92h-314v-815h164v-90h-414v90h142v815h-459 v-815h135v-90h-393zM299 999l461 -2l2 207q0 72 20 129v4q-93 27 -185.5 27t-148 -15.5t-88.5 -48.5q-61 -61 -61 -210v-91z"/>
<glyph horiz-adv-x="0"/>
<glyph horiz-adv-x="2048"/>
<glyph unicode=" " horiz-adv-x="532"/>
<glyph unicode="	" horiz-adv-x="532"/>
<glyph unicode=" " horiz-adv-x="532"/>
<glyph unicode="!" horiz-adv-x="405" d="M115 69q0 36 25.5 61.5t62.5 25.5t62.5 -25.5t25.5 -61.5t-25.5 -62.5t-61.5 -26.5t-62.5 26.5t-26.5 62.5zM145 1417h117l-6 -639l-14 -452h-68l-18 452z"/>
<glyph unicode="&quot;" horiz-adv-x="468" d="M88 1399h113l-27 -379h-61zM279 1399h110l-22 -379h-64z"/>
<glyph unicode="#" horiz-adv-x="1040" d="M82 397l22 76h148l82 381h-162l23 76h155l76 348h82l-76 -348h332l76 348h82l-76 -348h139l-22 -76h-134l-81 -381h147l-23 -76h-141l-84 -397h-82l84 397h-332l-84 -397h-81l84 397h-154zM334 473h332l82 381h-332z"/>
<glyph unicode="$" d="M139 106v240h90v-178q90 -44 209 -59v583q-207 70 -262 201q-22 51 -22 123q0 206 172 298q51 27 112 40v135h72v-1643h-72v162q-170 17 -299 98zM260 1026q0 -135 108 -196q33 -19 70 -33v460q-74 -20 -126 -74.5t-52 -156.5zM580 -154v1643h73v-127q143 -10 244 -74 v-241h-90v182q-67 30 -154 39v-539q63 -27 124 -54.5t107 -67.5q101 -88 101 -234q0 -297 -332 -359v-168h-73zM653 113q228 38 228 268q0 133 -138 205q-41 22 -90 41v-514z"/>
<glyph unicode="%" horiz-adv-x="1607" d="M39 944q0 177 58 278q84 146 270 146q187 0 263 -152q48 -95 48 -276q0 -64 -14.5 -136.5t-51.5 -131.5q-84 -135 -250 -135q-189 0 -266 129q-57 96 -57 278zM143 942q0 -151 41 -226q53 -95 183 -95q113 0 167 105q39 77 39 218q0 142 -25 204q-52 134 -181 134 q-224 0 -224 -340zM469 -47l582 1477h84l-578 -1477h-88zM930 401q0 177 58 277q84 147 269 147q188 0 263 -151q49 -98 49 -276q0 -64 -14.5 -137t-51.5 -132q-85 -135 -250 -135q-188 0 -266 130q-57 94 -57 277zM1034 436q0 -103 8.5 -161t33.5 -102q52 -95 181 -95 q114 0 167 105q40 77 40 213q0 50 -4 108.5t-24 111.5q-49 123 -179 123q-132 0 -187 -121q-36 -79 -36 -182z"/>
<glyph unicode="&amp;" horiz-adv-x="1425" d="M55 369q0 141 93.5 247.5t254.5 198.5q-66 90 -91 153.5t-25 124t18.5 112.5t54.5 90q77 83 203 83q128 0 205 -76q70 -68 70 -182q0 -149 -164 -267q-53 -38 -121 -77q110 -171 315 -414q39 -45 80 -90q212 203 244 461h-195v92h439v-92h-150q-22 -298 -270 -528 q154 -150 311 -215l-47 -90q-103 44 -260 166q-47 36 -86 73q-208 -159 -451 -159q-186 0 -303 97q-125 105 -125 292zM160 373q0 -148 92 -229q84 -74 200 -74q217 0 416 137q-101 104 -234.5 281.5t-178.5 242.5q-145 -81 -198 -138q-97 -108 -97 -220zM399 1108.5 q0 -61.5 29 -118t76 -126.5q118 62 155 100q72 72 72 150t-46 124t-127.5 46t-120 -57t-38.5 -118.5z"/>
<glyph unicode="'" horiz-adv-x="350" d="M123 1399h113l-27 -379h-62z"/>
<glyph unicode="(" horiz-adv-x="538" d="M121 588q0 312 117 580q61 142 168 292l47 -28q-129 -185 -195 -531q-27 -141 -27 -324.5t27 -334t62 -262.5q47 -146 135 -295l-49 -37q-106 153 -160 285q-125 312 -125 655z"/>
<glyph unicode=")" horiz-adv-x="542" d="M59 -315q88 149 129 278q95 299 95 625q0 292 -89 560q-53 159 -133 284l48 28q105 -146 160 -274q124 -286 124 -598q0 -351 -119 -639q-60 -143 -165 -301z"/>
<glyph unicode="*" horiz-adv-x="765" d="M104 1151q4 90 48 143l202 -114l-45 229q37 12 77 12t75 -12l-47 -229l202 106q35 -33 42.5 -65.5t7.5 -73.5l-238 -27l168 -159q-41 -63 -115 -89l-100 215l-98 -213q-71 18 -119 87l168 161z"/>
<glyph unicode="+" d="M172 561v96h334v328h100v-328h332v-96h-332v-342h-100v342h-334z"/>
<glyph unicode="," horiz-adv-x="380" d="M76 -172q35 35 56.5 68.5t25.5 87.5q-62 21 -62 86q0 35 27 61.5t65.5 26.5t66.5 -29t28 -89.5t-49.5 -134t-129.5 -114.5z"/>
<glyph unicode="-" horiz-adv-x="724" d="M104 481v109h514v-109h-514z"/>
<glyph unicode="." horiz-adv-x="374" d="M90 69q0 36 25.5 61.5t62.5 25.5t62.5 -25.5t25.5 -61.5t-25.5 -62.5t-61.5 -26.5t-62.5 26.5t-26.5 62.5z"/>
<glyph unicode="/" horiz-adv-x="645" d="M37 -53l522 1483h68l-521 -1483h-69z"/>
<glyph unicode="0" d="M74 666q0 552 307 680q78 32 183 32t182 -33.5t128.5 -90t82 -130t47 -152.5t21.5 -156.5t5 -170t-22.5 -214.5t-76.5 -221q-122 -224 -372 -224q-283 0 -401 216q-84 156 -84 464zM193 662q0 -275 68 -408q87 -170 302 -170q196 0 282 190q66 146 66 368q0 77 -3 142.5 t-13 134t-32.5 133t-60.5 114.5q-84 112 -225 112t-214.5 -62.5t-111.5 -155.5q-58 -142 -58 -398z"/>
<glyph unicode="1" d="M160 1241l354 117h109v-1264h278v-94h-692v94h299v1127l-330 -54z"/>
<glyph unicode="2" d="M72 1235q194 143 411 143q285 0 375 -200q31 -68 31 -159t-35 -178t-91 -172t-127 -166t-144.5 -154t-143 -137.5t-121.5 -115.5h607v203h104v-299h-864v88q51 51 122.5 117.5t148.5 143.5t152.5 159t136.5 167q134 189 134 326q0 207 -182 257q-56 16 -119 16 q-174 0 -348 -111z"/>
<glyph unicode="3" d="M90 59l31 86q206 -59 336 -59q180 0 283.5 81t103.5 257q0 141 -100.5 215t-280.5 74q-72 0 -139 -13l-37 78l469 475v2h-510v-208l-105 -3v314h764l23 -74l-469 -471h35q317 0 430 -215q39 -74 39 -180.5t-40 -189.5t-105 -138q-129 -108 -324 -108q-239 0 -404 77z"/>
<glyph unicode="4" d="M66 389v96l657 873h119v-873h198v-96h-198v-295h153v-94h-407v94h143v295h-665zM182 485h551v721h-12l-98 -135z"/>
<glyph unicode="5" d="M96 59l31 86q206 -59 336 -59q180 0 283.5 81t103.5 257q0 155 -104 240q-96 77 -232 77t-252 -59l-82 63l37 613h694v-273h-98v170h-494l-26 -458q27 8 84.5 26.5t147.5 18.5t166.5 -22.5t138.5 -71.5q139 -113 139 -324q0 -212 -145 -334q-129 -108 -324 -108 q-239 0 -404 77z"/>
<glyph unicode="6" d="M106 625q0 341 130 545q136 210 385 210q174 0 297 -67l-35 -86q-125 53 -254.5 53t-205 -61.5t-118.5 -146.5q-74 -146 -80 -320l13 -7q159 101 350 101q283 0 378 -226q33 -81 33 -188.5t-32.5 -188.5t-90.5 -139q-121 -118 -321 -118q-250 0 -359 189q-90 154 -90 450 zM223 584q0 -198 44 -296t110.5 -151t164 -53t158 24.5t100.5 69.5q81 91 81 238q0 327 -306 327q-150 0 -262 -57q-53 -25 -90 -55v-47z"/>
<glyph unicode="7" d="M154 1044v314h798v-96l-567 -1262h-111l566 1255h-582v-211h-104z"/>
<glyph unicode="8" d="M86 328q0 198 144 347q51 52 122 93q-100 55 -149 119.5t-49 147t28.5 142.5t81.5 105q115 98 293 98q159 0 267 -73q130 -89 130 -246q0 -197 -215 -352q246 -120 246 -353q0 -157 -117 -260q-124 -110 -333 -110q-218 0 -339 102q-110 94 -110 240zM203 342 q0 -111 78 -183q90 -83 256 -83q88 0 150.5 23.5t102.5 63.5q82 80 82 195q0 136 -122 220q-58 40 -136.5 74t-173.5 73q-131 -82 -184 -184.5t-53 -198.5zM272 1058.5q0 -68.5 32 -112t83 -76.5q59 -40 250 -118q207 142 207 290q0 155 -157 220q-56 24 -136 24 q-142 0 -218 -88q-61 -71 -61 -139.5z"/>
<glyph unicode="9" d="M86 934.5q0 107.5 32 188.5t90 139q120 118 320 118q251 0 360 -189q89 -155 89 -450q0 -342 -131 -543q-135 -210 -383 -210q-143 0 -271 46q-30 11 -47 21l35 86q125 -53 285 -53q147 0 242 104q136 151 151 424l-10 7q-162 -103 -352 -103q-280 0 -376 226 q-34 81 -34 188.5zM203 950q0 -327 305 -327q154 0 262 55q53 25 90 57v47q0 199 -44 294t-110.5 147.5t-181.5 52.5q-162 0 -241.5 -91t-79.5 -235z"/>
<glyph unicode=":" horiz-adv-x="366" d="M100 75q0 36 26 61.5t62 25.5q37 0 62.5 -25.5t25.5 -61.5t-22.5 -62.5t-63.5 -26.5t-65.5 26.5t-24.5 62.5zM100 734q0 36 26 60.5t62 24.5q37 0 62.5 -24.5t25.5 -61.5t-25.5 -63.5t-61.5 -26.5t-62.5 27.5t-26.5 63.5z"/>
<glyph unicode=";" horiz-adv-x="366" d="M76 -172q35 35 56.5 68.5t25.5 87.5q-62 21 -62 86q0 35 27 61.5t65.5 26.5t66.5 -29t28 -89.5t-49.5 -134t-129.5 -114.5zM100 734q0 36 26 60.5t62 24.5q37 0 62.5 -24.5t25.5 -61.5t-25.5 -63.5t-61.5 -26.5t-62.5 27.5t-26.5 63.5z"/>
<glyph unicode="&lt;" d="M176 565v84l770 393v-110l-657 -324l657 -329v-111z"/>
<glyph unicode="=" d="M150 430v94h804v-94h-804zM150 711v96h804v-96h-804z"/>
<glyph unicode="&gt;" d="M176 168v111l658 329l-658 324v110l770 -393v-84z"/>
<glyph unicode="?" horiz-adv-x="849" d="M82 1102v274q176 62 355 62t270.5 -71t91.5 -184.5t-58.5 -187t-132.5 -131t-123 -102.5t-81 -86q-60 -79 -60 -162q0 -46 21 -170l-91 -20q-28 116 -28 206t59.5 179t172 176t157.5 142.5t45 133.5q0 176 -240 176q-144 0 -262 -41v-194h-96zM268 69q0 36 25.5 61.5 t62.5 25.5t62.5 -25.5t25.5 -62.5t-25.5 -62.5t-61.5 -25.5t-62.5 26.5t-26.5 62.5z"/>
<glyph unicode="@" horiz-adv-x="1755" d="M143 682q0 156 61.5 288t167 227t244.5 149.5t299 54.5t290 -48t221 -135q186 -181 186 -481q-4 -194 -110 -307q-94 -100 -226 -100q-160 0 -207 112q-45 -43 -118.5 -77.5t-151 -34.5t-119 22.5t-64.5 55.5q-43 58 -43 125t19.5 107t51.5 68q62 53 157 62l248 21v57 q0 104 -37 144t-139.5 40t-229.5 -45l-25 70q128 63 261 63t195.5 -56t62.5 -194v-323q0 -141 149 -141q95 0 165 78q81 90 81 241t-44 261t-125 186q-166 157 -450 157t-486 -185q-95 -87 -150.5 -205t-55.5 -256t49 -257t134 -205q182 -184 452 -184q129 0 244 39l18 -66 q-110 -47 -262 -47t-283 54.5t-227 149.5q-203 201 -203 515zM672 555q0 -143 151 -143q113 0 226 100v203l-209 -17q-72 -4 -120 -40.5t-48 -102.5z"/>
<glyph unicode="A" horiz-adv-x="1302" d="M41 0v94h119l420 1307h147l424 -1307h113v-94h-383v94h145l-90 293h-567l-90 -293h151v-94h-389zM403 489h500l-248 799h-4z"/>
<glyph unicode="B" horiz-adv-x="1202" d="M82 0v96h139v1209h-131v94h584q201 0 302 -99.5t101 -252.5q0 -152 -98 -250q-39 -39 -102 -66q121 -32 188 -145q55 -93 55 -193t-31.5 -169.5t-84.5 -119.5q-107 -104 -261 -104h-661zM338 96h360q156 0 238 89q70 76 70 203q0 56 -19.5 108.5t-57.5 92.5 q-85 89 -231 89h-360v-582zM338 774h321q147 0 225.5 72.5t78.5 189.5q0 189 -167 248q-57 21 -137 21h-321v-531z"/>
<glyph unicode="C" horiz-adv-x="1116" d="M102 690q0 268 117 472q147 257 467 257q203 0 346 -55v-295h-98v219q-111 33 -238 33t-216 -46t-146 -129q-113 -162 -113 -460q0 -279 88 -420q51 -82 143.5 -131t260 -49t317.5 49l25 -88q-168 -61 -350.5 -61t-292 49t-178.5 141q-132 178 -132 514z"/>
<glyph unicode="D" horiz-adv-x="1296" d="M82 0v94h139v1211h-131v94h553q303 0 439 -208q112 -169 112 -492q0 -142 -26.5 -269t-91.5 -223q-142 -207 -453 -207h-541zM342 96h264q107 0 167.5 17.5t112.5 53.5t95 101.5t69.5 166.5t26.5 252t-24.5 256.5t-63.5 174t-88 106.5t-100 56q-71 25 -178 25h-281v-1209 z"/>
<glyph unicode="E" d="M82 0v94h135v1211h-127v92h920v-275h-99v183h-577v-523l571 13v-111l-571 8v-598h608v182h102v-276h-962z"/>
<glyph unicode="F" horiz-adv-x="1050" d="M82 0v94h135v1211h-127v92h920v-275h-99v183h-577v-523l571 13v-111l-571 8v-598h198v-94h-450z"/>
<glyph unicode="G" horiz-adv-x="1241" d="M102 690q0 267 120 472q93 159 276 224q94 33 258.5 33t306.5 -55v-295h-98v219q-111 33 -242 33t-225.5 -46t-155.5 -129q-121 -165 -121 -460q0 -274 91 -419q114 -179 376 -179q186 0 273 35v498h-211v92h430v-92h-107v-576q-187 -59 -399 -59q-572 0 -572 704z"/>
<glyph unicode="H" horiz-adv-x="1359" d="M82 0v96h127v1209h-127v94h373v-94h-129v-517h706v517h-127v94h373v-94h-129v-1209h129v-96h-373v96h127v592h-706v-592h129v-96h-373z"/>
<glyph unicode="I" horiz-adv-x="657" d="M143 0v94h125v1211h-125v94h371v-94h-129v-1211h129v-94h-371z"/>
<glyph unicode="J" horiz-adv-x="657" d="M-53 -279q179 100 254 207q80 114 80 289l2 1088h-168v94h440v-94h-154l-2 -1055q0 -348 -239 -510q-78 -53 -180 -96z"/>
<glyph unicode="K" horiz-adv-x="1245" d="M82 0v96h127v1209h-127v94h373v-94h-129v-586l594 584h-142v96h391v-96h-110l-467 -457l502 -748h120v-98h-397l-2 98h141l-448 668l-182 -178v-492h133v-96h-377z"/>
<glyph unicode="L" horiz-adv-x="1064" d="M82 0v94h135v1211h-127v92h393v-92h-149v-1211h608v244h102v-338h-962z"/>
<glyph unicode="M" horiz-adv-x="1689" d="M82 0v94h125v1211h-125v94h258l500 -1133h12l498 1133h258v-94h-127v-1211h127v-94h-373v94h131v1094h-4l-100 -234l-363 -817h-113l-467 1051h-4l4 -1094h134v-94h-371z"/>
<glyph unicode="N" horiz-adv-x="1431" d="M82 0v96h137v1209h-137v94h262l750 -1186h10v1092h-143v94h389v-94h-133v-1305h-109l-623 973l-149 239l-6 -2l2 -1114h143v-96h-393z"/>
<glyph unicode="O" horiz-adv-x="1327" d="M102 676.5q0 152.5 29 286t95 234.5q147 222 450 222q304 0 440 -224q109 -178 109 -509q0 -146 -35 -274.5t-104 -223.5q-146 -202 -410 -202q-446 0 -543 408q-31 130 -31 282.5zM221 674q0 -289 107.5 -440.5t347.5 -151.5q209 0 326 178q104 160 104 418 q0 114 -15.5 227t-61.5 206q-105 212 -353 212q-251 0 -365 -201q-90 -159 -90 -448z"/>
<glyph unicode="P" horiz-adv-x="1110" d="M82 0v94h129v1211h-129v94h553q181 0 291 -97q123 -107 123 -298q0 -153 -79 -266q-105 -148 -319 -148h-323v-496h172v-94h-418zM328 684h317q193 0 261 162q26 61 26 145t-22.5 141.5t-62.5 96.5q-78 76 -208 76h-311v-621z"/>
<glyph unicode="Q" horiz-adv-x="1325" d="M102 676.5q0 152.5 29 286t95 234.5q147 222 450 222q304 0 440 -224q109 -178 109 -492q0 -128 -20.5 -231t-61.5 -189q-86 -180 -246 -252l324 -78l-50 -119l-473 152h-22q-446 0 -543 408q-31 130 -31 282.5zM221 674q0 -289 107.5 -440.5t347.5 -151.5q209 0 326 178 q104 160 104 418q0 114 -15.5 227t-61.5 206q-105 212 -353 212q-251 0 -365 -201q-90 -159 -90 -448z"/>
<glyph unicode="R" horiz-adv-x="1198" d="M82 0v94h129v1211h-129v94h553q288 0 381 -203q33 -72 33 -146.5t-12.5 -133t-42.5 -111.5q-70 -121 -218 -160l260 -549l144 -18v-68q-74 -24 -134.5 -24t-81 24.5t-38.5 65.5l-260 555h-338v-537h172v-94h-418zM328 725h317q128 0 196 55q91 74 91 238q0 147 -85 221 q-75 66 -208 66h-311v-580z"/>
<glyph unicode="S" horiz-adv-x="1050" d="M72 92v252h98v-180q148 -76 319 -76q186 0 276 62q99 70 99 231q0 131 -96 197q-65 44 -193.5 78.5t-207 60.5t-139.5 66q-134 87 -134 253q0 182 130 286q120 97 323.5 97t337.5 -82v-254h-101v193q-95 45 -247 45t-239 -70.5t-87 -216.5q0 -161 207 -225 q59 -18 128 -35.5t147.5 -40t142.5 -64.5q143 -95 143 -290q0 -200 -143 -303q-126 -90 -359 -90t-405 106z"/>
<glyph unicode="T" horiz-adv-x="1060" d="M31 1102v297h997l2 -297h-100v203h-340v-1211h151v-94h-413v94h147v1211h-346v-203h-98z"/>
<glyph unicode="U" horiz-adv-x="1396" d="M61 1305v94h392v-94h-150v-805q0 -207 102.5 -311.5t293 -104.5t292 104.5t101.5 311.5v805h-148v94h391v-94h-129v-807q0 -236 -126 -371q-132 -141 -392 -141t-381 136t-121 376v807h-125z"/>
<glyph unicode="V" horiz-adv-x="1234" d="M20 1305v94h373v-94h-131l283 -906l78 -264h8l78 271l274 899h-127v94h369v-94h-125l-412 -1305h-131l-412 1305h-125z"/>
<glyph unicode="W" horiz-adv-x="1804" d="M20 1305v94h392v-94h-150l277 -1158h4l57 209l254 879l-20 70h-146v94h412v-94h-152l289 -975l51 -183h4l267 1158h-146v94h381v-94h-127l-317 -1305h-127l-250 846l-58 205h-4l-307 -1051h-133l-326 1305h-125z"/>
<glyph unicode="X" horiz-adv-x="1236" d="M41 0v96h123l387 633l-356 576h-123v94h391v-94h-144l302 -496l305 496h-150v94h398v-94h-123l-369 -586l385 -623h129v-96h-410v96h158l-334 543l-323 -543h166v-96h-412z"/>
<glyph unicode="Y" horiz-adv-x="1126" d="M20 1305v94h367v-94h-133l305 -568h8l318 568h-137v94h358v-94h-107l-378 -670v-541h167v-94h-454v94h168v535l-371 676h-111z"/>
<glyph unicode="Z" horiz-adv-x="1015" d="M41 0v94l764 1211h-617v-203h-98v297h850v-94l-764 -1209h696v221h103v-317h-934z"/>
<glyph unicode="[" horiz-adv-x="481" d="M102 -328v1753h308v-86h-201v-1575h201v-92h-308z"/>
<glyph unicode="\" horiz-adv-x="645" d="M37 1430h67l523 -1483h-70z"/>
<glyph unicode="]" horiz-adv-x="481" d="M61 -236h201v1575h-201v86h308v-1753h-308v92z"/>
<glyph unicode="^" horiz-adv-x="866" d="M45 805l348 594h80l340 -594h-96l-287 500l-289 -500h-96z"/>
<glyph unicode="_" horiz-adv-x="1024" d="M0 -184h1024v-74h-1024v74z"/>
<glyph unicode="`" horiz-adv-x="978" d="M252 1382l100 82l228 -323l-60 -43z"/>
<glyph unicode="a" horiz-adv-x="978" d="M72 250.5q0 89.5 26.5 142.5t74.5 90q93 71 259 80l266 15v81q0 143 -48 197q-46 53 -184 53t-300 -57l-31 82q172 80 341 80t250 -73t81 -253v-594h143l8 -67q-77 -35 -139.5 -35t-90.5 22.5t-30 98.5l-4 2q-143 -119 -284 -127q-33 -2 -87.5 -2t-108.5 28.5t-86 71.5 q-56 75 -56 164.5zM193 279q0 -197 204 -197q157 0 301 135v272l-280 -14q-113 -6 -169 -58t-56 -138z"/>
<glyph unicode="b" horiz-adv-x="1042" d="M-14 1362v90h282v-526q170 94 290.5 94t192.5 -40t113 -110q76 -131 76 -376q0 -357 -213 -466q-78 -40 -190 -40q-192 0 -379 82v1292h-172zM268 135q115 -49 260 -49q147 0 218 90q77 96 77 313q0 349 -151 413q-48 20 -105 20q-143 0 -299 -91v-696z"/>
<glyph unicode="c" horiz-adv-x="886" d="M82 485q0 338 212 479q83 56 231.5 56t275.5 -57v-242h-90v176q-96 29 -187.5 29t-152 -34t-99.5 -92q-75 -113 -75 -315q0 -289 153 -373q58 -32 171.5 -32t277.5 70l32 -74q-145 -86 -333 -86q-416 0 -416 495z"/>
<glyph unicode="d" horiz-adv-x="1048" d="M82 481q0 379 210 497q75 42 183 42q171 0 279 -78v420h-176v90h288v-1364h162v-88h-274v92l-4 6q-57 -45 -137.5 -77.5t-174.5 -32.5t-163.5 40t-112.5 108q-80 125 -80 345zM199 477q0 -310 159 -371q50 -20 97 -20t89 10t83 26q85 35 127 77v643q-66 50 -194 72 q-42 8 -90 8t-99.5 -22.5t-90.5 -75.5q-81 -111 -81 -347z"/>
<glyph unicode="e" horiz-adv-x="946" d="M82 496q0 181 68 320q61 123 187 174q67 28 161 28t159.5 -28.5t107.5 -73t64.5 -98.5t31.5 -106q11 -65 11 -165v-78h-675q0 -177 58 -269q75 -118 241 -118q150 0 317 74l33 -76q-165 -90 -348 -90q-232 0 -334 148q-82 120 -82 358zM199 563h563q0 262 -139 333 q-51 26 -129 26t-132.5 -30t-89.5 -80q-59 -86 -73 -249z"/>
<glyph unicode="f" horiz-adv-x="655" d="M41 0v90h149v815h-137v62l140 34v179q0 142 83 220q75 70 211 70q89 0 179 -20l-17 -88q-105 12 -141 12q-104 0 -156.5 -42t-52.5 -148v-185h295v-94h-295v-815h178v-90h-436z"/>
<glyph unicode="g" horiz-adv-x="987" d="M57 -143q0 121 89 207q24 22 44 32q-123 23 -127 144v8q0 82 62 124q47 32 108 38q-139 67 -139 258q0 180 127 277q101 77 241 77h17q102 -5 166 -25h307v-90h-159l-5 -10q76 -76 76 -223q0 -158 -110 -249q-109 -89 -289 -89h-129.5t-81.5 -6q-74 -14 -74 -72 q0 -37 32 -56.5t83 -19.5h246q180 0 275 -81t95 -226q0 -148 -129 -234q-123 -81 -317 -81q-219 0 -322 90q-86 75 -86 207zM168 -114.5q0 -53.5 15.5 -93.5t50.5 -70q79 -68 249 -68q138 0 226 60q92 64 92 161q0 134 -139 185q-52 20 -130 20h-229q-46 -12 -90 -76 q-45 -65 -45 -118.5zM213 674q0 -111 65.5 -177.5t184.5 -66.5t202 59.5t83 184.5q0 161 -138 224q-53 24 -133 24q-264 0 -264 -248z"/>
<glyph unicode="h" horiz-adv-x="1138" d="M41 1362v90h266v-545q88 53 185.5 83t186.5 30t145.5 -31t81.5 -77q36 -64 36 -203v-615h152v-67q-77 -35 -140 -35t-90.5 22.5t-29.5 98.5v565q0 126 -24 167.5t-60.5 59t-102.5 17.5q-143 0 -340 -107v-815h-110v1362h-156z"/>
<glyph unicode="i" horiz-adv-x="546" d="M109 907v90h227v-903h151v-67q-77 -35 -139.5 -35t-90.5 22.5t-30 98.5v794h-118zM195 1244q0 34 23.5 57.5t57 23.5t57 -23.5t23.5 -57.5t-23.5 -57.5t-57.5 -23.5t-57 23.5t-23 57.5z"/>
<glyph unicode="j" horiz-adv-x="522" d="M-20 -360q143 79 192 152q47 70 47 196v919h-149v90h258v-985q0 -187 -63 -276q-69 -97 -251 -172zM186 1244q0 34 23.5 57.5t57.5 23.5t57.5 -23.5t23.5 -57.5t-23.5 -57.5t-57.5 -23.5t-57.5 23.5t-23.5 57.5z"/>
<glyph unicode="k" horiz-adv-x="1007" d="M25 1362v90h278v-917l397 372h-135v90h369v-90h-105l-301 -284l334 -531l137 -18v-62q-54 -26 -113.5 -26t-80.5 17t-45 54l-305 496l-152 -139v-324h150v-90h-406v90h148v1272h-170z"/>
<glyph unicode="l" horiz-adv-x="561" d="M72 1362v90h278v-1362h150v-90h-406v90h148v1272h-170z"/>
<glyph unicode="m" horiz-adv-x="1740" d="M41 905v92h264v-84l8 -6q184 109 341.5 109t232.5 -115q188 117 362 117q190 0 257 -115q28 -49 33 -105.5t5 -105.5v-598h152v-67q-77 -35 -140 -35t-90.5 22.5t-29.5 98.5v559q0 127 -30 171t-70 60.5t-91 16.5t-94 -7.5t-86 -20.5q-94 -28 -154 -69q15 -53 15 -135 v-688h-111v711q0 119 -55 164t-135 45q-143 0 -320 -107v-813h-108v905h-156z"/>
<glyph unicode="n" horiz-adv-x="1138" d="M41 907v90h266v-82l6 -4q86 53 182.5 81t184.5 28t144.5 -31t81.5 -77q36 -64 36 -203v-615h152v-67q-77 -35 -140 -35t-90.5 22.5t-29.5 98.5v565q0 126 -24 167.5t-60.5 59t-102.5 17.5q-143 0 -340 -107v-815h-110v907h-156z"/>
<glyph unicode="o" horiz-adv-x="985" d="M82 492q0 352 223 480q80 46 198 46t195.5 -46t123.5 -120q81 -130 81 -356q0 -347 -215 -465q-82 -45 -204 -45t-198.5 42t-121.5 112q-82 129 -82 352zM199 489q0 -186 54 -282q70 -125 249 -125q286 0 286 420t-286 420q-166 0 -243 -140q-60 -108 -60 -293z"/>
<glyph unicode="p" horiz-adv-x="1038" d="M4 907v90h281v-102q57 47 138 81t176 34t165 -40t113 -108q79 -124 79 -346q0 -380 -210 -497q-76 -42 -183 -42q-169 0 -278 78v-391h176v-90h-451v90h162v1243h-168zM285 156q70 -52 193 -73q42 -7 90 -7t99.5 22.5t90.5 74.5q82 109 82 347q0 309 -159 372 q-50 19 -98.5 19t-89 -10t-81.5 -27q-86 -34 -127 -75v-643z"/>
<glyph unicode="q" horiz-adv-x="1044" d="M104 498q7 356 220 471q77 41 190 41q186 0 373 -82v-1262h168v-92h-467v92h188v406q-171 -95 -292.5 -95t-192 39t-113.5 109q-74 122 -74 349v24zM221 494v-21q0 -313 149 -377q48 -20 107 -20q147 0 299 90v696q-115 49 -253 49q-295 0 -302 -417z"/>
<glyph unicode="r" horiz-adv-x="714" d="M59 0v90h154v817h-152v90h261v-135h2q118 102 256 144q51 16 95 16t44 -45q0 -27 -12.5 -65t-30.5 -60l-350 -39v-723h166v-90h-433z"/>
<glyph unicode="s" horiz-adv-x="835" d="M61 287h89l6 -158q96 -49 231 -49q124 0 174.5 28.5t71 65.5t20.5 87t-19.5 81t-53.5 54q-58 39 -141.5 61t-143 41.5t-107.5 50.5q-106 70 -106 201q0 138 104 208q90 60 234 60q165 0 274 -72l6 -225h-90l-6 168q-85 35 -182.5 35t-163 -38t-65.5 -141q0 -110 160 -154 q40 -11 86 -23.5t106.5 -32t108.5 -51.5q106 -72 106 -220q0 -136 -112 -212q-94 -64 -255 -64q-212 0 -325 80z"/>
<glyph unicode="t" horiz-adv-x="704" d="M41 907v58l149 45l43 213l66 16v-242h305v-90h-307v-653q0 -68 26.5 -117t106.5 -49t201 37l22 -78q-112 -55 -233 -55q-232 0 -232 221v694h-147z"/>
<glyph unicode="u" horiz-adv-x="1120" d="M41 907v90h264v-678q0 -128 23.5 -168t60.5 -57.5t85.5 -17.5t88 9t82.5 27q96 39 170 105v690h-147v90l256 2v-2h2l-2 -903h143l8 -67q-77 -35 -139.5 -35t-90.5 22.5t-30 98.5l-4 2q-150 -138 -336 -138q-254 0 -273 207q-5 56 -5 105v618h-156z"/>
<glyph unicode="v" horiz-adv-x="983" d="M14 905v92h207l275 -884h8l244 792h-101v92h316v-92h-105l-299 -905h-129l-295 905h-121z"/>
<glyph unicode="w" horiz-adv-x="1511" d="M6 905v92h195l250 -878h8l96 297l139 405l-26 84h-156v92h383v-92h-111l187 -522l90 -264h8l209 786h-139v92h352v-92h-105l-253 -905h-127l-252 682h-13l-231 -682h-125l-266 905h-113z"/>
<glyph unicode="x" horiz-adv-x="950" d="M20 0v90h130l260 434l-222 383h-155v90h221l233 -403l181 313h-86v90h331v-90h-131l-239 -403l256 -414h133v-90h-338v90h84l-209 348l-203 -348h111v-90h-357z"/>
<glyph unicode="y" horiz-adv-x="1030" d="M33 905v92h188l213 -682l68 -227h10l268 817h-135v92h346v-92h-104l-377 -1141q-35 -111 -87 -156.5t-142 -45.5q-103 0 -213 32l20 84q118 -24 170.5 -24t91.5 29.5t68 113.5l65 203h-55l-293 905h-102z"/>
<glyph unicode="z" horiz-adv-x="851" d="M41 0v80l612 825h-487v-172h-92v264h706v-88l-606 -815h533v168h94v-262h-760z"/>
<glyph unicode="{" horiz-adv-x="485" d="M59 580v65q115 20 126 154q3 37 3 75v369q0 70 31 114q57 81 125 81h90v-88h-43q-49 0 -72.5 -38t-23.5 -98v-348q0 -212 -113 -252q76 -47 94.5 -105t18.5 -149v-487q0 -57 16.5 -95t71.5 -38h51v-90h-90q-69 0 -114 66q-42 62 -42 130v506q0 98 -15 136q-30 76 -114 92 z"/>
<glyph unicode="|" horiz-adv-x="432" d="M166 -279v1706h82v-1706h-82z"/>
<glyph unicode="}" horiz-adv-x="485" d="M51 -260h51q55 0 71.5 38t16.5 95v487q0 99 14 140q26 73 99 114q-113 37 -113 252v348q0 59 -23.5 97.5t-72.5 38.5h-43v88h90q69 0 115 -66q41 -59 41 -129v-369q0 -97 15 -136q33 -79 114 -93v-65q-115 -20 -126 -152q-3 -37 -3 -76v-506q0 -68 -31 -113 q-55 -83 -125 -83h-90v90z"/>
<glyph unicode="~" d="M160 569q31 66 88 110t116.5 44t115 -15.5t110.5 -33.5q144 -49 194 -49l142 98l53 -45q-29 -66 -86 -111t-124.5 -45t-120 15.5t-101.5 33t-94 32.5t-86 15l-152 -96z"/>
<glyph unicode="¡" horiz-adv-x="405" d="M115 925q0 36 26.5 62.5t62.5 26.5t61.5 -26.5t25.5 -62.5t-25.5 -61.5t-62.5 -25.5t-62.5 25.5t-25.5 61.5zM145 -424l29 1092h68l20 -1092h-117z"/>
<glyph unicode="¢" d="M178 485q0 319 190 465q74 58 193 68v190h82v-190q145 -8 254 -55v-242h-90v176q-84 25 -164 29v-844q103 6 252 68l33 -74q-124 -72 -285 -84v-166h-82v164q-383 22 -383 495zM293 485q0 -276 136 -365q52 -34 132 -40v842q-268 -37 -268 -437z"/>
<glyph unicode="£" d="M129 0v94q154 50 166 365l10 186h-143v92h147l10 234q14 279 205 365q70 32 168 32q188 0 318 -63v-248h-99v178q-119 37 -207 37t-139 -23.5t-81 -65.5q-51 -69 -60 -220l-10 -226h407v-92h-409l-11 -186q-11 -288 -106 -363h702v-96h-868z"/>
<glyph unicode="¤" d="M125 264l131 125q-86 99 -86 239.5t86 237.5l-129 129l55 58l131 -129q102 84 234.5 84t243.5 -84l129 129l59 -60l-133 -127q84 -102 84 -237q0 -129 -82 -240l131 -121l-59 -63l-132 129q-98 -84 -234 -84t-239 84l-131 -131zM260 627q0 -122 85 -205q86 -84 206 -84 q119 0 203 84q86 86 86 205q0 123 -85 205q-87 83 -204 83q-119 0 -206 -83q-85 -82 -85 -205z"/>
<glyph unicode="¥" d="M33 1264v94h366v-94h-133l279 -572h8l285 572h-138v94h359v-94h-107l-321 -615h313v-71h-794v71h309l-316 615h-110zM150 397v78h794v-78h-344v-303h172v-94h-455v94h170v303h-337z"/>
<glyph unicode="¦" horiz-adv-x="432" d="M166 -279v781h82v-781h-82zM166 692v735h82v-735h-82z"/>
<glyph unicode="§" horiz-adv-x="915" d="M113 584q0 166 153 272q-72 47 -100.5 95t-28.5 119t26.5 127t74.5 95q94 78 254 78q104 0 169.5 -15.5t120.5 -31.5l-2 -246h-94v162q-107 29 -174 29t-111.5 -9.5t-78.5 -30.5q-76 -50 -76 -153q0 -59 41 -100t102.5 -73t134 -60.5t134.5 -67.5q145 -92 145 -223 q0 -72 -32 -135.5t-112 -139.5q152 -95 152 -251q0 -160 -117 -243q-105 -75 -266 -75q-98 0 -168 18.5t-125 34.5l-2 240h94v-164q109 -31 183.5 -31t123 11.5t84.5 37.5q82 56 82 160q0 70 -44 117t-108.5 82t-141 65.5t-141 70.5t-108.5 95.5t-44 139.5zM225 614 q0 -70 35 -112.5t87 -73.5t115.5 -54.5t123.5 -51.5q51 51 79.5 107t28.5 107t-34.5 94.5t-87 74t-115 55t-115.5 55.5q-117 -104 -117 -201z"/>
<glyph unicode="¨" horiz-adv-x="978" d="M203 1170.5q0 33.5 24.5 56t58.5 22.5t57.5 -21.5t23.5 -56.5t-23.5 -55t-58.5 -20t-58.5 20.5t-23.5 54zM575 1170.5q0 33.5 23 56t56.5 22.5t58 -21.5t24.5 -56.5t-24.5 -55t-60.5 -20t-56.5 20.5t-20.5 54z"/>
<glyph unicode="©" horiz-adv-x="1687" d="M106 683q0 151 58.5 284t158 232t233.5 156.5t287 57.5t288 -57.5t236 -156.5t159.5 -232t58.5 -284t-58.5 -284t-159.5 -232t-236 -156.5t-288 -57.5t-287 57.5t-233.5 156.5t-158 232t-58.5 284zM178 685q0 -136 52.5 -256t143.5 -209t212 -141t259 -52t259 52t211 141 t142 209t52 256t-52 256t-142 209t-211 140t-259 51t-259 -51t-212 -140t-143.5 -209t-52.5 -256zM434 668q0 202 85 345q48 81 132 135t227.5 54t237.5 -41v-221h-76v158q-84 24 -172 24t-152.5 -32.5t-105.5 -93.5q-82 -120 -82 -330q0 -201 64 -304q81 -129 276 -129 q144 0 246 35l19 -71q-117 -45 -253.5 -45t-217 35.5t-130.5 102.5q-98 131 -98 378z"/>
<glyph unicode="ª" horiz-adv-x="675" d="M45 741q0 84 71.5 133.5t182.5 53.5l172 8v45q0 88 -29.5 121t-120.5 33t-208 -41l-25 67q122 56 241 56t176.5 -48.5t57.5 -171.5v-370h96l9 -60q-50 -24 -99 -24t-71.5 15t-28.5 58q-80 -61 -136.5 -69t-101 -8t-83.5 19.5t-62 47.5q-41 51 -41 135zM143 735 q0 -117 131 -117q88 0 197 82v162l-182 -8q-145 -10 -146 -119z"/>
<glyph unicode="«" horiz-adv-x="829" d="M133 338v80l281 307l47 -39l-203 -309l205 -307l-45 -37zM399 338v80l281 307l47 -39l-203 -309l205 -307l-45 -37z"/>
<glyph unicode="¬" d="M172 561v96h766v-438h-100v342h-666z"/>
<glyph unicode="­" horiz-adv-x="724" d="M104 481v109h514v-109h-514z"/>
<glyph unicode="®" horiz-adv-x="1163" d="M88 969q0 197 142 337t339 140t341 -140q143 -139 143 -337q0 -197 -143 -335q-141 -138 -342 -138q-99 0 -186 36.5t-152 101.5q-142 139 -142 335zM150 969q0 -170 124 -292q123 -122 295 -122t297 122q123 119 123 292q0 175 -123 295q-123 122 -296 122 q-87 0 -163.5 -32.5t-132.5 -89.5q-124 -123 -124 -295zM352 674v55h51v488h-51v55h240q78 0 130 -38t52 -126q0 -39 -26.5 -88t-88.5 -74l105 -215l61 -8v-45q-31 -10 -61 -10q-46 0 -66 43l-110 227h-115v-209h72v-55h-193zM473 993h121q43 0 78 22.5t35 87t-34 89.5 t-79 25h-121v-224z"/>
<glyph unicode="¯" horiz-adv-x="978" d="M170 1137v98h621v-98h-621z"/>
<glyph unicode="°" horiz-adv-x="684" d="M94 1102q0 105 77 184q78 80 187 80t185 -80q73 -77 73 -184q0 -113 -73 -184q-75 -74 -188 -74q-58 0 -107 19.5t-83 54.5q-71 72 -71 184zM172 1098q0 -76 52 -129.5t128 -53.5q73 0 128 53t55 128q0 77 -54.5 131.5t-129.5 54.5t-127 -54t-52 -130z"/>
<glyph unicode="±" d="M170 0v84h766v-84h-766zM170 541v96h334v328h100v-328h332v-96h-332v-342h-100v342h-334z"/>
<glyph unicode="²" horiz-adv-x="718" d="M33 1460q134 92 266.5 92t210.5 -53t78 -168q0 -171 -272 -409q-70 -60 -128 -109h336v117h94v-203h-579v74q80 70 160 138.5t143 134.5q141 148 141 249q0 141 -180 141q-104 0 -227 -67z"/>
<glyph unicode="³" horiz-adv-x="718" d="M47 766l23 76q109 -35 227 -35q233 0 233 182q0 72 -60 112t-143.5 40t-119.5 -6l-35 61l283 258h-279v-121h-94v207h514l18 -59l-276 -254q128 0 209 -59q88 -63 88 -179q0 -129 -96 -203q-85 -67 -217 -67q-172 0 -275 47z"/>
<glyph unicode="´" horiz-adv-x="978" d="M406 1141l227 323l100 -82l-268 -284z"/>
<glyph unicode="¶" horiz-adv-x="999" d="M88 1047q0 152 102 255q104 107 252 107h498v-88h-137v-1706h-88v1706h-146l2 -1706h-247v90h157v989h-39q-146 0 -252 103q-102 98 -102 250z"/>
<glyph unicode="·" horiz-adv-x="366" d="M100 591q0 36 26 60.5t62 24.5q37 0 62.5 -24.5t25.5 -61.5t-25.5 -63.5t-61.5 -26.5t-62.5 27.5t-26.5 63.5z"/>
<glyph unicode="¸" horiz-adv-x="886" d="M303 -430q246 22 246 125q0 88 -213 88l-23 35l195 252l57 -35l-131 -168q98 -4 160.5 -42t62.5 -116q0 -139 -197 -189q-67 -16 -157 -14v64z"/>
<glyph unicode="¹" horiz-adv-x="718" d="M92 1473l238 67h90v-729h176v-84h-471v84h190v623l-206 -33z"/>
<glyph unicode="º" horiz-adv-x="679" d="M53 872q0 234 155 317q56 30 139 30t137.5 -30t85.5 -79q57 -88 57 -236q0 -230 -151 -306q-58 -29 -146 -29q-277 0 -277 333zM147 870q0 -113 28 -162t67 -69.5t101 -20.5t99 24t58 60q35 64 35 170q0 181 -93 246q-36 25 -96 25q-109 0 -160 -88q-39 -68 -39 -185z "/>
<glyph unicode="»" horiz-adv-x="829" d="M111 70l204 307l-202 309l47 39l280 -307v-80l-284 -305zM377 70l205 307l-203 309l47 39l281 -307v-80l-285 -305z"/>
<glyph unicode="¼" horiz-adv-x="1607" d="M121 1288l237 68h91v-729h176v-84h-471v84h190v622l-207 -32zM492 -47l581 1477h84l-577 -1477h-88zM836 227v78l424 508h98v-502h127v-84h-127v-143h98v-84h-287v84h91v143h-424zM954 311h308v373z"/>
<glyph unicode="½" horiz-adv-x="1607" d="M98 1288l238 68h90v-729h176v-84h-471v84h191v622l-207 -32zM457 -47l581 1477h84l-577 -1477h-88zM924 733q134 92 266.5 92t210.5 -53t78 -168q0 -171 -273 -408q-69 -61 -127 -110h336v117h94v-203h-579v74q80 70 159.5 138.5t142.5 135.5q142 148 142 248 q0 141 -180 141q-104 0 -227 -67z"/>
<glyph unicode="¾" horiz-adv-x="1607" d="M55 582l23 75q106 -34 227 -34q234 0 234 182q0 72 -60.5 111.5t-143.5 39.5t-120 -6l-35 62l283 258h-279v-121h-94v207h514l19 -60l-277 -254q203 0 274 -132q23 -44 23 -109.5t-26.5 -115.5t-69.5 -84q-83 -66 -217 -66q-171 0 -275 47zM508 -47l582 1477h84 l-578 -1477h-88zM901 227v78l424 508h98v-502h127v-84h-127v-143h99v-84h-287v84h90v143h-424zM1020 311h307v373z"/>
<glyph unicode="¿" horiz-adv-x="849" d="M82 -189.5q0 113.5 58.5 187.5t131 131t122.5 102t82 86q61 78 61 162q0 31 -21 170l90 21q29 -120 29 -208.5t-59.5 -177.5t-172 -176t-157.5 -142.5t-45 -133.5q0 -176 239 -176q146 0 262 41v194h97v-274q-173 -61 -353.5 -61t-272 70.5t-91.5 184zM436 926 q0 37 25.5 62.5t61.5 25.5t62.5 -26.5t26.5 -62.5t-25.5 -61.5t-62.5 -25.5t-62.5 25.5t-25.5 62.5z"/>
<glyph unicode="À" horiz-adv-x="1302" d="M41 0v94h119l420 1307h147l424 -1307h113v-94h-383v94h145l-90 293h-567l-90 -293h151v-94h-389zM342 1772l100 81l228 -323l-60 -43zM403 489h500l-248 799h-4z"/>
<glyph unicode="Á" horiz-adv-x="1302" d="M41 0v94h119l420 1307h147l424 -1307h113v-94h-383v94h145l-90 293h-567l-90 -293h151v-94h-389zM403 489h500l-248 799h-4zM621 1530l227 323l100 -81l-268 -285z"/>
<glyph unicode="Â" horiz-adv-x="1302" d="M41 0v94h119l420 1307h147l424 -1307h113v-94h-383v94h145l-90 293h-567l-90 -293h151v-94h-389zM303 1532l305 272h80l307 -268l-39 -47l-309 203l-307 -205zM403 489h500l-248 799h-4z"/>
<glyph unicode="Ã" horiz-adv-x="1302" d="M41 0v94h119l420 1307h147l424 -1307h113v-94h-383v94h145l-90 293h-567l-90 -293h151v-94h-389zM365 1520q20 57 63 97t87 40t82 -12.5t74 -27.5q96 -40 126 -40l116 80l45 -37q-20 -57 -63 -97t-92 -40t-87 12t-71 27q-86 41 -119 41l-116 -80zM403 489h500l-248 799 h-4z"/>
<glyph unicode="Ä" horiz-adv-x="1302" d="M41 0v94h119l420 1307h147l424 -1307h113v-94h-383v94h145l-90 293h-567l-90 -293h151v-94h-389zM389 1564q0 34 24.5 56t58.5 22t57.5 -21.5t23.5 -55.5q0 -35 -23.5 -55.5t-58.5 -20.5t-58.5 20.5t-23.5 54.5zM403 489h500l-248 799h-4zM762 1564q0 34 22.5 56t56.5 22 t58.5 -21.5t24.5 -55.5q0 -35 -24.5 -55.5t-60.5 -20.5t-56.5 20.5t-20.5 54.5z"/>
<glyph unicode="Å" horiz-adv-x="1302" d="M41 0v94h119l420 1307h147l424 -1307h113v-94h-383v94h145l-90 293h-567l-90 -293h151v-94h-389zM403 489h500l-248 799h-4zM440 1692q0 80 60 142q59 60 149 60q86 0 145 -60q58 -60 58 -144t-58.5 -141.5t-146.5 -57.5t-147.5 59.5t-59.5 141.5zM514 1689 q0 -58 37 -96.5t96 -38.5t95 38t36 96q0 57 -36 97t-95 40t-96 -39t-37 -97z"/>
<glyph unicode="Æ" horiz-adv-x="1882" d="M0 0v94h129l758 1211h-117v92h995v-275h-98v183h-537v-523l531 13v-111l-531 8v-598h568v182h102v-276h-921v94h135v334h-549l-207 -334h162v-94h-420zM528 530h486v762h-13z"/>
<glyph unicode="Ç" horiz-adv-x="1116" d="M102 690q0 268 117 472q147 257 467 257q203 0 346 -55v-295h-98v219q-111 33 -238 33t-216 -46t-146 -129q-113 -162 -113 -460q0 -279 88 -420q51 -82 143.5 -131t260 -49t317.5 49l25 -88q-106 -44 -310 -59l-120 -156q98 -4 160.5 -42t62.5 -116q0 -89 -87 -144 q-97 -62 -267 -58v63q245 22 245 125q0 88 -213 88l-22 35l155 205q-557 7 -557 702z"/>
<glyph unicode="È" d="M82 0v94h135v1211h-127v92h920v-275h-99v183h-577v-523l571 13v-111l-571 8v-598h608v182h102v-276h-962zM342 1772l100 81l228 -323l-60 -43z"/>
<glyph unicode="É" d="M82 0v94h135v1211h-127v92h920v-275h-99v183h-577v-523l571 13v-111l-571 8v-598h608v182h102v-276h-962zM530 1530l228 323l100 -81l-268 -285z"/>
<glyph unicode="Ê" d="M82 0v94h135v1211h-127v92h920v-275h-99v183h-577v-523l571 13v-111l-571 8v-598h608v182h102v-276h-962zM258 1532l305 272h80l307 -268l-39 -47l-309 203l-307 -205z"/>
<glyph unicode="Ë" d="M82 0v94h135v1211h-127v92h920v-275h-99v183h-577v-523l571 13v-111l-571 8v-598h608v182h102v-276h-962zM334 1564q0 34 24.5 56t58.5 22t57.5 -21.5t23.5 -55.5q0 -35 -23.5 -55.5t-58.5 -20.5t-58.5 20.5t-23.5 54.5zM707 1564q0 34 22.5 56t56 22t58 -21.5 t24.5 -55.5q0 -35 -24.5 -55.5t-60.5 -20.5t-56 20.5t-20 54.5z"/>
<glyph unicode="Ì" horiz-adv-x="657" d="M59 1772l101 81l227 -323l-59 -43zM143 0v94h125v1211h-125v94h371v-94h-129v-1211h129v-94h-371z"/>
<glyph unicode="Í" horiz-adv-x="657" d="M143 0v94h125v1211h-125v94h371v-94h-129v-1211h129v-94h-371zM272 1530l228 323l100 -81l-268 -285z"/>
<glyph unicode="Î" horiz-adv-x="657" d="M-16 1532l305 272h80l307 -268l-39 -47l-309 203l-308 -205zM143 0v94h125v1211h-125v94h371v-94h-129v-1211h129v-94h-371z"/>
<glyph unicode="Ï" horiz-adv-x="657" d="M61 1564q0 34 25 56t58.5 22t57 -21.5t23.5 -55.5q0 -35 -23.5 -55.5t-58.5 -20.5t-58.5 20.5t-23.5 54.5zM143 0v94h125v1211h-125v94h371v-94h-129v-1211h129v-94h-371zM434 1564q0 34 22.5 56t56.5 22t58.5 -21.5t24.5 -55.5q0 -35 -24.5 -55.5t-60.5 -20.5 t-56.5 20.5t-20.5 54.5z"/>
<glyph unicode="Ð" horiz-adv-x="1296" d="M82 0v94h139v621h-131v80h131v510h-131v94h553q303 0 439 -208q112 -169 112 -489q0 -321 -118 -495q-142 -207 -453 -207h-541zM342 96h264q107 0 167.5 17.5t112.5 53.5t95 101.5t69.5 166.5t26.5 252t-24.5 256.5t-63.5 174t-88 106.5t-100 56q-71 25 -178 25h-281 v-510h324v-80h-324v-619z"/>
<glyph unicode="Ñ" horiz-adv-x="1431" d="M82 0v96h137v1209h-137v94h262l750 -1186h10v1092h-143v94h389v-94h-133v-1305h-109l-623 973l-149 239l-6 -2l2 -1114h143v-96h-393zM430 1526q20 57 63.5 97t87.5 40t81.5 -12.5t73.5 -27.5q96 -40 126 -40l117 80l45 -37q-20 -57 -63 -97t-92.5 -40t-87.5 12t-71 27 q-84 41 -118 41l-117 -80z"/>
<glyph unicode="Ò" horiz-adv-x="1327" d="M102 676.5q0 152.5 29 286t95 234.5q147 222 450 222q304 0 440 -224q109 -178 109 -509q0 -146 -35 -274.5t-104 -223.5q-146 -202 -410 -202q-446 0 -543 408q-31 130 -31 282.5zM221 674q0 -289 107.5 -440.5t347.5 -151.5q209 0 326 178q104 160 104 418 q0 114 -15.5 227t-61.5 206q-105 212 -353 212q-251 0 -365 -201q-90 -159 -90 -448zM362 1772l101 81l227 -323l-59 -43z"/>
<glyph unicode="Ó" horiz-adv-x="1327" d="M102 676.5q0 152.5 29 286t95 234.5q147 222 450 222q304 0 440 -224q109 -178 109 -509q0 -146 -35 -274.5t-104 -223.5q-146 -202 -410 -202q-446 0 -543 408q-31 130 -31 282.5zM221 674q0 -289 107.5 -440.5t347.5 -151.5q209 0 326 178q104 160 104 418 q0 114 -15.5 227t-61.5 206q-105 212 -353 212q-251 0 -365 -201q-90 -159 -90 -448zM608 1530l228 323l100 -81l-268 -285z"/>
<glyph unicode="Ô" horiz-adv-x="1327" d="M102 676.5q0 152.5 29 286t95 234.5q147 222 450 222q304 0 440 -224q109 -178 109 -509q0 -146 -35 -274.5t-104 -223.5q-146 -202 -410 -202q-446 0 -543 408q-31 130 -31 282.5zM221 674q0 -289 107.5 -440.5t347.5 -151.5q209 0 326 178q104 160 104 418 q0 114 -15.5 227t-61.5 206q-105 212 -353 212q-251 0 -365 -201q-90 -159 -90 -448zM330 1532l305 272h80l307 -268l-39 -47l-309 203l-307 -205z"/>
<glyph unicode="Õ" horiz-adv-x="1327" d="M102 676.5q0 152.5 29 286t95 234.5q147 222 450 222q304 0 440 -224q109 -178 109 -509q0 -146 -35 -274.5t-104 -223.5q-146 -202 -410 -202q-446 0 -543 408q-31 130 -31 282.5zM221 674q0 -289 107.5 -440.5t347.5 -151.5q209 0 326 178q104 160 104 418 q0 114 -15.5 227t-61.5 206q-105 212 -353 212q-251 0 -365 -201q-90 -159 -90 -448zM389 1530q20 57 63.5 97t87.5 40t81.5 -12.5t73.5 -27.5q96 -40 126 -40l117 80l45 -37q-20 -57 -63 -97t-92.5 -40t-87.5 12.5t-70 27.5q-87 40 -119 40l-117 -80z"/>
<glyph unicode="Ö" horiz-adv-x="1327" d="M102 676.5q0 152.5 29 286t95 234.5q147 222 450 222q304 0 440 -224q109 -178 109 -509q0 -146 -35 -274.5t-104 -223.5q-146 -202 -410 -202q-446 0 -543 408q-31 130 -31 282.5zM221 674q0 -289 107.5 -440.5t347.5 -151.5q209 0 326 178q104 160 104 418 q0 114 -15.5 227t-61.5 206q-105 212 -353 212q-251 0 -365 -201q-90 -159 -90 -448zM397 1564q0 34 24.5 56t58.5 22t57.5 -21.5t23.5 -55.5q0 -35 -23.5 -55.5t-58.5 -20.5t-58.5 20.5t-23.5 54.5zM770 1564q0 34 22.5 56t56.5 22t58.5 -21.5t24.5 -55.5 q0 -35 -24.5 -55.5t-60.5 -20.5t-56.5 20.5t-20.5 54.5z"/>
<glyph unicode="×" d="M217 317l270 271l-266 264l70 68l264 -265l260 260l72 -69l-260 -262l262 -262l-68 -70l-262 264l-272 -270z"/>
<glyph unicode="Ø" horiz-adv-x="1327" d="M94 -10l135 184q-127 172 -127 512q0 506 300 672q110 61 274 61q235 0 368 -135l103 139h86l-141 -192q133 -182 133 -539q0 -312 -139 -504q-146 -202 -408.5 -202t-401.5 135l-96 -131h-86zM221 682q0 -267 82 -408l674 916q-110 133 -301 133q-251 0 -365 -201 q-90 -159 -90 -440zM344 213q111 -131 332 -131q209 0 326 178q104 160 104 435.5t-88 434.5z"/>
<glyph unicode="Ù" horiz-adv-x="1396" d="M61 1305v94h392v-94h-150v-805q0 -207 102.5 -311.5t293 -104.5t292 104.5t101.5 311.5v805h-148v94h391v-94h-129v-807q0 -236 -126 -371q-132 -141 -392 -141t-381 136t-121 376v807h-125zM426 1772l100 81l228 -323l-60 -43z"/>
<glyph unicode="Ú" horiz-adv-x="1396" d="M61 1305v94h392v-94h-150v-805q0 -207 102.5 -311.5t293 -104.5t292 104.5t101.5 311.5v805h-148v94h391v-94h-129v-807q0 -236 -126 -371q-132 -141 -392 -141t-381 136t-121 376v807h-125zM668 1530l227 323l100 -81l-268 -285z"/>
<glyph unicode="Û" horiz-adv-x="1396" d="M61 1305v94h392v-94h-150v-805q0 -207 102.5 -311.5t293 -104.5t292 104.5t101.5 311.5v805h-148v94h391v-94h-129v-807q0 -236 -126 -371q-132 -141 -392 -141t-381 136t-121 376v807h-125zM354 1532l316 268h84l319 -264l-41 -47l-321 201l-320 -203z"/>
<glyph unicode="Ü" horiz-adv-x="1396" d="M61 1305v94h392v-94h-150v-805q0 -207 102.5 -311.5t293 -104.5t292 104.5t101.5 311.5v805h-148v94h391v-94h-129v-807q0 -236 -126 -371q-132 -141 -392 -141t-381 136t-121 376v807h-125zM442 1564q0 34 25 56t58.5 22t57 -21.5t23.5 -55.5q0 -35 -23.5 -55.5 t-58.5 -20.5t-58.5 20.5t-23.5 54.5zM815 1564q0 34 22.5 56t56.5 22t58.5 -21.5t24.5 -55.5q0 -35 -24.5 -55.5t-60.5 -20.5t-56.5 20.5t-20.5 54.5z"/>
<glyph unicode="Ý" horiz-adv-x="1126" d="M20 1305v94h367v-94h-133l305 -568h8l318 568h-137v94h358v-94h-107l-378 -670v-541h167v-94h-454v94h168v535l-371 676h-111zM516 1528l227 323l101 -82l-269 -284z"/>
<glyph unicode="Þ" horiz-adv-x="1110" d="M82 0v94h129v1211h-129v94h418v-94h-172v-172h307q180 0 291 -97q123 -106 123 -299q0 -152 -79 -265q-105 -148 -319 -148h-323v-230h172v-94h-418zM328 418h317q193 0 261 162q26 61 26 145t-22.5 141.5t-62.5 95.5q-78 76 -208 76h-311v-620z"/>
<glyph unicode="ß" horiz-adv-x="1124" d="M41 0v94h158v701h-150v88h150v233q0 217 175 312q68 38 168.5 38t162 -25.5t98.5 -62.5q67 -67 67 -152t-33.5 -138.5t-73.5 -96.5t-73 -82t-33 -92q0 -92 152 -215q43 -35 87 -69.5t79 -76.5q80 -96 80 -214q0 -179 -167 -246q-61 -25 -149 -25q-170 0 -284 56v221 l90 -2v-144q103 -34 200.5 -34t145 44.5t47.5 106t-19.5 102.5t-48 75t-63.5 61.5t-70 59.5t-71.5 68t-66.5 73q-67 84 -67 148t35 111.5t76 91.5t76 89t35 96q0 104 -96 154q-44 22 -113 22t-111.5 -20.5t-69.5 -53.5q-55 -67 -55 -178v-1118h-268z"/>
<glyph unicode="à" horiz-adv-x="978" d="M72 250.5q0 89.5 26.5 142.5t74.5 90q93 71 259 80l266 15v81q0 143 -48 197q-46 53 -184 53t-300 -57l-31 82q172 80 341 80t250 -73t81 -253v-594h143l8 -67q-77 -35 -139.5 -35t-90.5 22.5t-30 98.5l-4 2q-143 -119 -284 -127q-33 -2 -87.5 -2t-108.5 28.5t-86 71.5 q-56 75 -56 164.5zM193 279q0 -197 204 -197q157 0 301 135v272l-280 -14q-113 -6 -169 -58t-56 -138zM258 1382l100 82l228 -323l-60 -43z"/>
<glyph unicode="á" horiz-adv-x="978" d="M72 250.5q0 89.5 26.5 142.5t74.5 90q93 71 259 80l266 15v81q0 143 -48 197q-46 53 -184 53t-300 -57l-31 82q172 80 341 80t250 -73t81 -253v-594h143l8 -67q-77 -35 -139.5 -35t-90.5 22.5t-30 98.5l-4 2q-143 -119 -284 -127q-33 -2 -87.5 -2t-108.5 28.5t-86 71.5 q-56 75 -56 164.5zM193 279q0 -197 204 -197q157 0 301 135v272l-280 -14q-113 -6 -169 -58t-56 -138zM434 1141l228 323l100 -82l-268 -284z"/>
<glyph unicode="â" horiz-adv-x="978" d="M72 250.5q0 89.5 26.5 142.5t74.5 90q93 71 259 80l266 15v81q0 143 -48 197q-46 53 -184 53t-300 -57l-31 82q172 80 341 80t250 -73t81 -253v-594h143l8 -67q-77 -35 -139.5 -35t-90.5 22.5t-30 98.5l-4 2q-143 -119 -284 -127q-33 -2 -87.5 -2t-108.5 28.5t-86 71.5 q-56 75 -56 164.5zM141 1135l305 284h80l308 -280l-39 -47l-310 202l-307 -204zM193 279q0 -197 204 -197q157 0 301 135v272l-280 -14q-113 -6 -169 -58t-56 -138z"/>
<glyph unicode="ã" horiz-adv-x="978" d="M72 250.5q0 89.5 26.5 142.5t74.5 90q93 71 259 80l266 15v81q0 143 -48 197q-46 53 -184 53t-300 -57l-31 82q172 80 341 80t250 -73t81 -253v-594h143l8 -67q-77 -35 -139.5 -35t-90.5 22.5t-30 98.5l-4 2q-143 -119 -284 -127q-33 -2 -87.5 -2t-108.5 28.5t-86 71.5 q-56 75 -56 164.5zM178 1135q20 57 63.5 97t87.5 40t82 -12.5t73 -27.5q95 -40 126 -40l117 80l45 -37q-20 -57 -63 -97t-92.5 -40t-87 12t-70.5 28q-86 40 -119 40l-117 -80zM193 279q0 -197 204 -197q157 0 301 135v272l-280 -14q-113 -6 -169 -58t-56 -138z"/>
<glyph unicode="ä" horiz-adv-x="978" d="M72 250.5q0 89.5 26.5 142.5t74.5 90q93 71 259 80l266 15v81q0 143 -48 197q-46 53 -184 53t-300 -57l-31 82q172 80 341 80t250 -73t81 -253v-594h143l8 -67q-77 -35 -139.5 -35t-90.5 22.5t-30 98.5l-4 2q-143 -119 -284 -127q-33 -2 -87.5 -2t-108.5 28.5t-86 71.5 q-56 75 -56 164.5zM180 1170.5q0 33.5 24.5 56t58.5 22.5t57.5 -21.5t23.5 -56.5t-23.5 -55t-58.5 -20t-58.5 20.5t-23.5 54zM193 279q0 -197 204 -197q157 0 301 135v272l-280 -14q-113 -6 -169 -58t-56 -138zM553 1170.5q0 33.5 22.5 56t56.5 22.5t58.5 -21.5t24.5 -56.5 t-24.5 -55t-60.5 -20t-56.5 20.5t-20.5 54z"/>
<glyph unicode="å" horiz-adv-x="978" d="M72 250.5q0 89.5 26.5 142.5t74.5 90q93 71 259 80l266 15v81q0 143 -48 197q-46 53 -184 53t-300 -57l-31 82q172 80 341 80t250 -73t81 -253v-594h143l8 -67q-77 -35 -139.5 -35t-90.5 22.5t-30 98.5l-4 2q-143 -119 -284 -127q-33 -2 -87.5 -2t-108.5 28.5t-86 71.5 q-56 75 -56 164.5zM193 279q0 -197 204 -197q157 0 301 135v272l-280 -14q-113 -6 -169 -58t-56 -138zM281 1298q0 84 60 142q62 61 148 61q83 0 145 -61q58 -56 58 -142t-58.5 -143t-146.5 -57t-147 59t-59 141zM354 1295.5q0 -58.5 37 -96.5t96 -38t95 38t36 95t-36 97.5 t-95 40.5t-96 -39t-37 -97.5z"/>
<glyph unicode="æ" horiz-adv-x="1585" d="M72 250.5q0 89.5 26.5 144t74.5 91.5q102 77 259 77l291 2v94q0 143 -60.5 196.5t-197.5 53.5t-299 -57l-31 82q172 80 363 80q239 0 307 -170q106 174 330 174q173 0 269 -102q102 -107 106 -301q1 -44 1 -68v-78h-675q0 -177 58 -269q75 -118 241 -118q150 0 317 74 l33 -76q-165 -90 -348 -90q-237 0 -340 155q-204 -148 -381 -157q-41 -2 -94.5 -2t-107.5 28.5t-86 71.5q-56 75 -56 164.5zM193 274q0 -192 204 -192q120 0 274 78q50 26 89 61q-35 92 -39 248h-303q-113 0 -169 -52t-56 -143zM838 563h563q0 262 -139 333q-51 26 -129 26 t-132.5 -30t-88.5 -80q-60 -86 -74 -249z"/>
<glyph unicode="ç" horiz-adv-x="886" d="M82 485q0 338 212 479q83 56 231.5 56t275.5 -57v-242h-90v176q-96 29 -187.5 29t-152 -34t-99.5 -92q-75 -113 -75 -315q0 -289 153 -373q58 -32 171.5 -32t277.5 70l32 -74q-127 -76 -301 -84l-96 -125q98 -4 160.5 -42t62.5 -116q0 -139 -197 -189q-67 -16 -157 -14 v64q246 22 246 125q0 88 -213 88l-23 35l133 174q-364 29 -364 493z"/>
<glyph unicode="è" horiz-adv-x="946" d="M82 496q0 181 68 320q61 123 187 174q67 28 161 28t159.5 -28.5t107.5 -73t64.5 -98.5t31.5 -106q11 -65 11 -165v-78h-675q0 -177 58 -269q75 -118 241 -118q150 0 317 74l33 -76q-165 -90 -348 -90q-232 0 -334 148q-82 120 -82 358zM199 563h563q0 262 -139 333 q-51 26 -129 26t-132.5 -30t-89.5 -80q-59 -86 -73 -249zM203 1382l100 82l227 -323l-59 -43z"/>
<glyph unicode="é" horiz-adv-x="946" d="M82 496q0 181 68 320q61 123 187 174q67 28 161 28t159.5 -28.5t107.5 -73t64.5 -98.5t31.5 -106q11 -65 11 -165v-78h-675q0 -177 58 -269q75 -118 241 -118q150 0 317 74l33 -76q-165 -90 -348 -90q-232 0 -334 148q-82 120 -82 358zM199 563h563q0 262 -139 333 q-51 26 -129 26t-132.5 -30t-89.5 -80q-59 -86 -73 -249zM457 1141l227 323l100 -82l-268 -284z"/>
<glyph unicode="ê" horiz-adv-x="946" d="M82 496q0 181 68 320q61 123 187 174q67 28 161 28t159.5 -28.5t107.5 -73t64.5 -98.5t31.5 -106q11 -65 11 -165v-78h-675q0 -177 58 -269q75 -118 241 -118q150 0 317 74l33 -76q-165 -90 -348 -90q-232 0 -334 148q-82 120 -82 358zM147 1135l306 284h79l308 -280 l-39 -47l-309 202l-308 -204zM199 563h563q0 262 -139 333q-51 26 -129 26t-132.5 -30t-89.5 -80q-59 -86 -73 -249z"/>
<glyph unicode="ë" horiz-adv-x="946" d="M82 496q0 181 68 320q61 123 187 174q67 28 161 28t159.5 -28.5t107.5 -73t64.5 -98.5t31.5 -106q11 -65 11 -165v-78h-675q0 -177 58 -269q75 -118 241 -118q150 0 317 74l33 -76q-165 -90 -348 -90q-232 0 -334 148q-82 120 -82 358zM199 563h563q0 262 -139 333 q-51 26 -129 26t-132.5 -30t-89.5 -80q-59 -86 -73 -249zM238 1170.5q0 33.5 24.5 56t58 22.5t57 -21.5t23.5 -56.5t-23.5 -55t-58.5 -20t-58 20.5t-23 54zM610 1170.5q0 33.5 22.5 56t56.5 22.5t58.5 -21.5t24.5 -56.5t-24.5 -55t-60.5 -20t-56.5 20.5t-20.5 54z"/>
<glyph unicode="ì" horiz-adv-x="546" d="M-31 1382l101 82l227 -323l-59 -43zM109 907v90h227v-903h151v-67q-77 -35 -139.5 -35t-90.5 22.5t-30 98.5v794h-118z"/>
<glyph unicode="í" horiz-adv-x="546" d="M109 907v90h227v-903h151v-67q-77 -35 -139.5 -35t-90.5 22.5t-30 98.5v794h-118zM205 1141l227 323l100 -82l-268 -284z"/>
<glyph unicode="î" horiz-adv-x="546" d="M-59 1135l305 284h80l307 -280l-39 -47l-309 202l-308 -204zM109 907v90h227v-903h151v-67q-77 -35 -139.5 -35t-90.5 22.5t-30 98.5v794h-118z"/>
<glyph unicode="ï" horiz-adv-x="532" d="M-4 1170.5q0 33.5 24.5 56t58.5 22.5t57.5 -21.5t23.5 -56.5t-23.5 -55t-58.5 -20t-58.5 20.5t-23.5 54zM109 907v90h227v-903h151v-67q-77 -35 -139.5 -35t-90.5 22.5t-30 98.5v794h-118zM369 1170.5q0 33.5 22.5 56t56 22.5t58 -21.5t24.5 -56.5t-24.5 -55t-60.5 -20 t-56 20.5t-20 54z"/>
<glyph unicode="ð" horiz-adv-x="985" d="M86 430q0 198 100 330q115 149 308 149q146 0 262 -65q-61 180 -166 309l-193 -129l-43 59l187 127q-98 104 -222 187l43 69q145 -80 259 -200l192 129l43 -62l-186 -125q233 -290 233 -684q0 -355 -213 -487q-82 -51 -207 -51t-202.5 43t-120.5 109q-74 112 -74 292z M193 434q0 -147 51 -232q73 -120 248 -120q173 0 250 150q55 108 55 266q0 117 -29 235q-80 53 -151.5 67.5t-139 14.5t-125 -36t-92.5 -91q-67 -105 -67 -254z"/>
<glyph unicode="ñ" horiz-adv-x="1138" d="M41 907v90h266v-82l6 -4q86 53 182.5 81t184.5 28t144.5 -31t81.5 -77q36 -64 36 -203v-615h152v-67q-77 -35 -140 -35t-90.5 22.5t-29.5 98.5v565q0 126 -24 167.5t-60.5 59t-102.5 17.5q-143 0 -340 -107v-815h-110v907h-156zM221 1161q20 57 63.5 97t87.5 40t82 -12 t74 -28q90 -39 125 -39l117 79l45 -36q-20 -57 -63 -97.5t-92.5 -40.5t-87 12.5t-70.5 27.5q-84 40 -119 40l-117 -80z"/>
<glyph unicode="ò" horiz-adv-x="985" d="M82 492q0 352 223 480q80 46 198 46t195.5 -46t123.5 -120q81 -130 81 -356q0 -347 -215 -465q-82 -45 -204 -45t-198.5 42t-121.5 112q-82 129 -82 352zM199 489q0 -186 54 -282q70 -125 249 -125q286 0 286 420t-286 420q-166 0 -243 -140q-60 -108 -60 -293zM211 1382 l100 82l228 -323l-60 -43z"/>
<glyph unicode="ó" horiz-adv-x="985" d="M82 492q0 352 223 480q80 46 198 46t195.5 -46t123.5 -120q81 -130 81 -356q0 -347 -215 -465q-82 -45 -204 -45t-198.5 42t-121.5 112q-82 129 -82 352zM199 489q0 -186 54 -282q70 -125 249 -125q286 0 286 420t-286 420q-166 0 -243 -140q-60 -108 -60 -293zM449 1141 l227 323l100 -82l-268 -284z"/>
<glyph unicode="ô" horiz-adv-x="985" d="M82 492q0 352 223 480q80 46 198 46t195.5 -46t123.5 -120q81 -130 81 -356q0 -347 -215 -465q-82 -45 -204 -45t-198.5 42t-121.5 112q-82 129 -82 352zM156 1135l305 284h80l307 -280l-39 -47l-309 202l-307 -204zM199 489q0 -186 54 -282q70 -125 249 -125 q286 0 286 420t-286 420q-166 0 -243 -140q-60 -108 -60 -293z"/>
<glyph unicode="õ" horiz-adv-x="985" d="M82 492q0 352 223 480q80 46 198 46t195.5 -46t123.5 -120q81 -130 81 -356q0 -347 -215 -465q-82 -45 -204 -45t-198.5 42t-121.5 112q-82 129 -82 352zM199 489q0 -186 54 -282q70 -125 249 -125q286 0 286 420t-286 420q-166 0 -243 -140q-60 -108 -60 -293zM207 1135 q20 57 63.5 97t87.5 40t81.5 -12.5t73.5 -27.5q96 -40 126 -40l117 80l45 -37q-20 -57 -63.5 -97t-92.5 -40t-87 12t-70 28q-85 40 -119 40l-117 -80z"/>
<glyph unicode="ö" horiz-adv-x="985" d="M82 492q0 352 223 480q80 46 198 46t195.5 -46t123.5 -120q81 -130 81 -356q0 -347 -215 -465q-82 -45 -204 -45t-198.5 42t-121.5 112q-82 129 -82 352zM199 489q0 -186 54 -282q70 -125 249 -125q286 0 286 420t-286 420q-166 0 -243 -140q-60 -108 -60 -293z M242 1170.5q0 33.5 24.5 56t58 22.5t57.5 -21.5t24 -56.5t-23.5 -55t-58.5 -20t-58.5 20.5t-23.5 54zM614 1170.5q0 33.5 22.5 56t56.5 22.5t58.5 -21.5t24.5 -56.5t-24.5 -55t-60.5 -20t-56.5 20.5t-20.5 54z"/>
<glyph unicode="÷" d="M170 561v94h768v-94h-768zM467 296q0 36 25.5 60.5t62.5 24.5t62.5 -24.5t25.5 -61.5t-25.5 -63.5t-61.5 -26.5t-62.5 27.5t-26.5 63.5zM467 921q0 36 25.5 61.5t62.5 25.5t62.5 -25.5t25.5 -62.5t-25.5 -64t-61.5 -27t-62.5 28t-26.5 64z"/>
<glyph unicode="ø" horiz-adv-x="985" d="M74 -14l102 137q-94 128 -94 369q0 352 223 480q80 46 197 46q168 0 268 -100l72 98l67 2l-104 -141q98 -139 98 -381q0 -347 -215 -465q-82 -45 -229.5 -45t-243.5 92l-68 -90zM199 489q0 -183 47 -272l456 612q-75 93 -200 93q-166 0 -243 -140q-60 -108 -60 -293z M281 166q75 -84 221 -84q286 0 286 410q0 180 -55 288z"/>
<glyph unicode="ù" horiz-adv-x="1120" d="M41 907v90h264v-678q0 -128 23.5 -168t60.5 -57.5t85.5 -17.5t88 9t82.5 27q96 39 170 105v690h-147v90l256 2v-2h2l-2 -903h143l8 -67q-77 -35 -139.5 -35t-90.5 22.5t-30 98.5l-4 2q-150 -138 -336 -138q-254 0 -273 207q-5 56 -5 105v618h-156zM258 1382l100 82 l228 -323l-60 -43z"/>
<glyph unicode="ú" horiz-adv-x="1120" d="M41 907v90h264v-678q0 -128 23.5 -168t60.5 -57.5t85.5 -17.5t88 9t82.5 27q96 39 170 105v690h-147v90l256 2v-2h2l-2 -903h143l8 -67q-77 -35 -139.5 -35t-90.5 22.5t-30 98.5l-4 2q-150 -138 -336 -138q-254 0 -273 207q-5 56 -5 105v618h-156zM457 1141l227 323 l100 -82l-268 -284z"/>
<glyph unicode="û" horiz-adv-x="1120" d="M41 907v90h264v-678q0 -128 23.5 -168t60.5 -57.5t85.5 -17.5t88 9t82.5 27q96 39 170 105v690h-147v90l256 2v-2h2l-2 -903h143l8 -67q-77 -35 -139.5 -35t-90.5 22.5t-30 98.5l-4 2q-150 -138 -336 -138q-254 0 -273 207q-5 56 -5 105v618h-156zM188 1135l306 284h79 l308 -280l-39 -47l-310 202l-307 -204z"/>
<glyph unicode="ü" horiz-adv-x="1120" d="M41 907v90h264v-678q0 -128 23.5 -168t60.5 -57.5t85.5 -17.5t88 9t82.5 27q96 39 170 105v690h-147v90l256 2v-2h2l-2 -903h143l8 -67q-77 -35 -139.5 -35t-90.5 22.5t-30 98.5l-4 2q-150 -138 -336 -138q-254 0 -273 207q-5 56 -5 105v618h-156zM272 1170.5 q0 33.5 25 56t58.5 22.5t57 -21.5t23.5 -56.5t-23.5 -55t-58.5 -20t-58.5 20.5t-23.5 54zM645 1170.5q0 33.5 22.5 56t56.5 22.5t58.5 -21.5t24.5 -56.5t-24.5 -55t-60.5 -20t-56.5 20.5t-20.5 54z"/>
<glyph unicode="ý" horiz-adv-x="1030" d="M33 905v92h188l213 -682l68 -227h10l268 817h-135v92h346v-92h-104l-377 -1141q-35 -111 -87 -156.5t-142 -45.5q-103 0 -213 32l20 84q118 -24 170.5 -24t91.5 29.5t68 113.5l65 203h-55l-293 905h-102zM406 1141l227 323l100 -82l-268 -284z"/>
<glyph unicode="þ" horiz-adv-x="1038" d="M4 1311v90h281v-506q57 47 138 81t176 34t165 -40t113 -108q79 -124 79 -346q0 -380 -210 -497q-76 -42 -183 -42q-169 0 -278 78v-391h176v-90h-451v90h162v1647h-168zM285 156q70 -52 193 -73q42 -7 90 -7t99.5 22.5t90.5 74.5q82 109 82 347q0 309 -159 372 q-50 19 -98.5 19t-89 -10t-81.5 -27q-86 -34 -127 -75v-643z"/>
<glyph unicode="ÿ" horiz-adv-x="1030" d="M33 905v92h188l213 -682l68 -227h10l268 817h-135v92h346v-92h-104l-377 -1141q-35 -111 -87 -156.5t-142 -45.5q-103 0 -213 32l20 84q118 -24 170.5 -24t91.5 29.5t68 113.5l65 203h-55l-293 905h-102zM223 1170.5q0 33.5 24.5 56t58.5 22.5t57.5 -21.5t23.5 -56.5 t-23.5 -55t-58.5 -20t-58.5 20.5t-23.5 54zM596 1170.5q0 33.5 22.5 56t56.5 22.5t58.5 -21.5t24.5 -56.5t-24.5 -55t-60.5 -20t-56.5 20.5t-20.5 54z"/>
<glyph unicode="ı" horiz-adv-x="546" d="M109 907v90h227v-903h151v-67q-77 -35 -139.5 -35t-90.5 22.5t-30 98.5v794h-118z"/>
<glyph unicode="Œ" horiz-adv-x="1576" d="M102 676.5q0 152.5 29 286t95 234.5q147 222 450 222q96 0 176 -22h629v-275h-99v183h-536v-523l530 13v-111l-530 8v-598h567v182h103v-276h-709q-72 -14 -131 -14q-446 0 -543 408q-31 130 -31 282.5zM221 674q0 -289 107.5 -440.5t347.5 -151.5h26q13 0 25 2v1237 l-51 2q-251 0 -365 -201q-90 -159 -90 -448z"/>
<glyph unicode="œ" horiz-adv-x="1656" d="M82 492q0 352 223 480q80 46 209 46t212 -62.5t124 -158.5q98 221 356 221q174 0 270 -102q102 -107 106 -301q1 -44 1 -68v-78h-676q0 -387 299 -387q151 0 318 74l32 -76q-165 -90 -348 -90q-275 0 -364 203q-101 -207 -365 -207q-216 0 -315 154q-82 129 -82 352z M199 489q0 -186 54 -282q70 -125 249 -125q286 0 286 420t-286 420q-166 0 -243 -140q-60 -108 -60 -293zM909 563h564q0 262 -140 333q-51 26 -129 26t-132 -30t-89 -80q-60 -86 -74 -249z"/>
<glyph unicode="Ÿ" horiz-adv-x="1126" d="M20 1305v94h367v-94h-133l305 -568h8l318 568h-137v94h358v-94h-107l-378 -670v-541h167v-94h-454v94h168v535l-371 676h-111zM301 1564q0 34 24.5 56t58.5 22t57.5 -21.5t23.5 -55.5q0 -35 -23.5 -55.5t-58.5 -20.5t-58.5 20.5t-23.5 54.5zM674 1564q0 34 22.5 56 t56.5 22t58.5 -21.5t24.5 -55.5q0 -35 -24.5 -55.5t-60.5 -20.5t-56.5 20.5t-20.5 54.5z"/>
<glyph unicode="ƒ" d="M80 -217l31 76q65 -19 115 -19t86 18.5t60 53.5q69 97 114 512q27 238 36 299h-190v86h200l29 201q47 366 305 366q75 0 160 -26l-22 -78q-75 16 -132 16t-93 -19.5t-59 -56.5q-40 -61 -58 -202q-6 -45 -14.5 -101.5t-12.5 -99.5h211v-86h-221q-12 -78 -21.5 -162 t-17.5 -149.5t-16 -123.5q-18 -144 -23 -165q-29 -186 -102.5 -280.5t-208.5 -94.5q-88 0 -156 35z"/>
<glyph unicode="ˆ" horiz-adv-x="978" d="M141 1135l305 284h80l308 -280l-39 -47l-310 202l-307 -204z"/>
<glyph unicode="ˇ" horiz-adv-x="978" d="M143 1380l37 45l307 -204l310 202l39 -47l-308 -262h-79z"/>
<glyph unicode="˘" horiz-adv-x="978" d="M186 1321l78 53q53 -72 116.5 -122t123.5 -50q133 0 282 152l45 -39q-150 -207 -333 -207q-132 0 -250 136q-33 38 -62 77z"/>
<glyph unicode="˙" horiz-adv-x="978" d="M403 1185q0 36 26 61.5t61.5 25.5t61.5 -25.5t26 -61.5t-26 -61.5t-62 -25.5t-61.5 25.5t-25.5 61.5z"/>
<glyph unicode="˚" horiz-adv-x="978" d="M287 1298q0 84 60 142q62 61 149 61q82 0 144 -61q58 -56 58 -142t-58 -143t-146.5 -57t-147.5 59t-59 141zM360 1295.5q0 -58.5 37 -96.5t96.5 -38t95.5 38t36 95t-36 97.5t-95 40.5t-96.5 -39t-37.5 -97.5z"/>
<glyph unicode="˛" horiz-adv-x="886" d="M375 -270q0 186 213 325l24 -26q-81 -81 -118 -213q-9 -35 -9 -71t32 -53.5t77 -18.5q56 -1 168 22l10 -53q-106 -52 -205 -52q-192 0 -192 140z"/>
<glyph unicode="˜" horiz-adv-x="978" d="M172 1135q20 57 63.5 97t87.5 40t81.5 -12.5t73.5 -27.5q96 -40 126 -40l117 80l45 -37q-20 -57 -63.5 -97t-92.5 -40t-87 12t-71 28q-84 40 -118 40l-117 -80z"/>
<glyph unicode="˝" horiz-adv-x="978" d="M283 1141l227 323l100 -82l-268 -284zM512 1141l227 323l101 -82l-269 -284z"/>
<glyph unicode="Ω" horiz-adv-x="1363" d="M82 0v96h229l2 2q-163 111 -184 438q-6 93 -6 209.5t29.5 241.5t97.5 221q147 211 442 211q301 0 440 -213q113 -173 113 -481q0 -469 -217 -627l4 -2h250v-96h-463v104q248 62 292 407q13 101 13 207.5t-16 213t-64 193.5q-107 196 -352 196q-239 0 -353 -177 q-97 -151 -97 -419q0 -265 59 -409q72 -175 236 -210v-106h-455z"/>
<glyph unicode="π" horiz-adv-x="1148" d="M53 905v92h1037v-92h-148v-811h152v-67q-77 -35 -140 -35t-90.5 22.5t-29.5 98.5v792h-527v-905h-110v905h-144z"/>
<glyph unicode="Ё" d="M82 0v94h135v1211h-127v92h920v-275h-99v183h-577v-523l571 13v-111l-571 8v-598h608v182h102v-276h-962zM326 1564q0 34 24.5 56t58 22t57 -21.5t23.5 -55.5q0 -35 -23 -55.5t-58 -20.5t-58.5 20.5t-23.5 54.5zM698 1564q0 34 22.5 56t56.5 22t58.5 -21.5t24.5 -55.5 q0 -35 -24.5 -55.5t-60.5 -20.5t-56.5 20.5t-20.5 54.5z"/>
<glyph unicode="Ђ" horiz-adv-x="1468" d="M53 1102v295h1145v-295h-100v203h-486v-535q194 84 377 84q197 0 302 -122q93 -108 93 -292q0 -308 -240 -526q-69 -64 -145 -111l-41 62q310 231 310 559t-320 328q-156 0 -336 -74v-584h152v-94h-414v94h148v1211h-346v-203h-99z"/>
<glyph unicode="Ѓ" horiz-adv-x="1050" d="M82 0v94h135v1211h-127v92h920v-275h-99v183h-577v-1211h198v-94h-450zM504 1532l227 323l100 -81l-268 -285z"/>
<glyph unicode="Є" horiz-adv-x="1116" d="M102 690q0 268 117 472q147 257 467 257q203 0 346 -55v-295h-98v219q-111 33 -233 33t-205.5 -38t-141.5 -109q-115 -141 -131 -392l580 13v-111l-582 8v-6q0 -279 88 -420q51 -82 143.5 -131t260 -49t317.5 49l25 -88q-168 -61 -350.5 -61t-292 49t-178.5 141 q-132 178 -132 514z"/>
<glyph unicode="Ѕ" horiz-adv-x="1050" d="M72 92v252h98v-180q148 -76 319 -76q186 0 276 62q99 70 99 231q0 131 -96 197q-65 44 -193.5 78.5t-207 60.5t-139.5 66q-134 87 -134 253q0 182 130 286q120 97 323.5 97t337.5 -82v-254h-101v193q-95 45 -247 45t-239 -70.5t-87 -216.5q0 -161 207 -225 q59 -18 128 -35.5t147.5 -40t142.5 -64.5q143 -95 143 -290q0 -200 -143 -303q-126 -90 -359 -90t-405 106z"/>
<glyph unicode="І" horiz-adv-x="657" d="M143 0v94h125v1211h-125v94h371v-94h-129v-1211h129v-94h-371z"/>
<glyph unicode="Ї" horiz-adv-x="657" d="M59 1564q0 34 25 56t58.5 22t57 -21.5t23.5 -55.5q0 -35 -23.5 -55.5t-58.5 -20.5t-58.5 20.5t-23.5 54.5zM143 0v94h125v1211h-125v94h371v-94h-129v-1211h129v-94h-371zM432 1564q0 34 22.5 56t56.5 22t58.5 -21.5t24.5 -55.5q0 -35 -24.5 -55.5t-60.5 -20.5 t-56.5 20.5t-20.5 54.5z"/>
<glyph unicode="Ј" horiz-adv-x="657" d="M-53 -279q179 100 254 207q80 114 80 289l2 1088h-168v94h440v-94h-154l-2 -1055q0 -348 -239 -510q-78 -53 -180 -96z"/>
<glyph unicode="Љ" horiz-adv-x="1890" d="M20 47q117 37 186.5 123t106.5 221t47.5 318.5t10.5 416.5v177h-176v96h976v-94h-145v-496h350q215 0 333 -133q99 -111 99 -277q0 -196 -118 -301q-112 -98 -289 -98h-631v94h139v1211l-428 -2v-152q0 -229 -12 -434t-56 -364.5t-132 -263t-242 -130.5zM1026 94h369 q130 0 211 75q88 82 88 230q0 154 -104 242q-87 74 -222 74h-342v-621z"/>
<glyph unicode="Њ" horiz-adv-x="1908" d="M82 0v94h127v1211h-127v92h375v-92h-129v-500h600v500h-140v94h402v-94h-146v-496h351q214 0 333 -133q99 -110 99 -277q0 -195 -119 -301q-110 -98 -289 -98h-631v94h140v619h-600v-619h129v-94h-375zM1044 94h369q130 0 211 75q88 82 88 230q0 155 -103 242 q-87 74 -223 74h-342v-621z"/>
<glyph unicode="Ћ" horiz-adv-x="1599" d="M61 1102v295h1147v-295h-100v203h-485v-531q204 78 375.5 78t276.5 -76t105 -229v-453h129v-94h-374v94h127v414q0 192 -170 232q-54 12 -121 12q-180 0 -348 -78v-580h151v-94h-414v94h148v1211h-348v-203h-99z"/>
<glyph unicode="Ќ" horiz-adv-x="1198" d="M82 0v94h125v1211h-125v94h371v-94h-129v-1211h129v-94h-371zM397 719v31l449 583q35 45 63.5 62.5t66.5 16.5q76 -2 146 -36l-10 -73l-178 -21l-422 -543l479 -633l187 -20v-74q-148 -51 -226 -13q-30 15 -59 50zM545 1536l227 324l100 -82l-268 -285z"/>
<glyph unicode="Ў" horiz-adv-x="1126" d="M10 1305v94h363v-94h-133l190 -506l139 -385h9l133 383l184 508h-137v94h356v-94h-106l-404 -1108q-41 -109 -92 -156t-141 -47q-104 0 -213 33l20 84q123 -25 173 -25t88 29.5t69 113.5l37 103h-53l-371 973h-111zM244 1702l84 57q122 -166 233 -166q131 0 283 152 l45 -39q-157 -217 -334 -217q-132 0 -250 136q-33 38 -61 77z"/>
<glyph unicode="Џ" horiz-adv-x="1359" d="M82 0v94h127v1211h-127v92h375v-92h-129v-1211h700v1211h-127v92h377v-92h-129v-1211h129v-94h-549v-336h-98v336h-549z"/>
<glyph unicode="А" horiz-adv-x="1302" d="M41 0v94h119l420 1307h147l424 -1307h113v-94h-383v94h145l-90 293h-567l-90 -293h151v-94h-389zM403 489h500l-248 799h-4z"/>
<glyph unicode="Б" horiz-adv-x="1191" d="M86 0v94h125v1211h-125v92h887v-275h-99v183h-546v-496h350q223 0 338 -122q94 -100 94 -267q0 -196 -118 -312q-110 -108 -290 -108h-616zM328 94h372q127 0 208 85q87 91 87 241q0 155 -98 231q-82 64 -227 64h-342v-621z"/>
<glyph unicode="В" horiz-adv-x="1202" d="M82 0v96h139v1209h-131v94h584q201 0 302 -99.5t101 -252.5q0 -152 -98 -250q-39 -39 -102 -66q121 -32 188 -145q55 -93 55 -193t-31.5 -169.5t-84.5 -119.5q-107 -104 -261 -104h-661zM338 96h360q156 0 238 89q70 76 70 203q0 56 -19.5 108.5t-57.5 92.5 q-85 89 -231 89h-360v-582zM338 774h321q147 0 225.5 72.5t78.5 189.5q0 189 -167 248q-57 21 -137 21h-321v-531z"/>
<glyph unicode="Г" horiz-adv-x="1050" d="M82 0v94h135v1211h-127v92h920v-275h-99v183h-577v-1211h198v-94h-450z"/>
<glyph unicode="Д" horiz-adv-x="1386" d="M61 94h107q128 107 194 434q60 292 60 674v103h-135v92h985v-92h-129v-1211h135v-426h-98v332h-1020v-332h-99v426zM301 94h727v1211h-502v-105q0 -600 -122 -912q-42 -108 -103 -194z"/>
<glyph unicode="Е" d="M82 0v94h135v1211h-127v92h920v-275h-99v183h-577v-523l571 13v-111l-571 8v-598h608v182h102v-276h-962z"/>
<glyph unicode="Ж" horiz-adv-x="1773" d="M25 12v74l184 20l434 623l-418 553l-172 21l-8 73q87 37 138 38t77.5 -14.5t48.5 -45.5l461 -613v-30l-457 -656q-31 -45 -66.5 -59t-89 -13t-132.5 29zM707 0v94h124v1211h-124v94h370v-94h-129v-1211h129v-94h-370zM1008 711v30l454 598q29 37 54.5 55.5t62.5 17.5 q80 -2 154 -36l-11 -73l-170 -21l-422 -549l439 -627l184 -20v-74q-82 -28 -139 -29t-87 12t-61 58z"/>
<glyph unicode="З" horiz-adv-x="1118" d="M70 72l30 86q209 -60 359 -60q217 0 327.5 84t110.5 244q0 136 -113 218q-107 77 -276 77h-166v94h164q170 0 261 77t91 195q0 234 -332 234q-166 0 -305 -61v-224h-98v295q167 88 412 88q315 0 410 -175q34 -62 34 -154t-61.5 -181.5t-182.5 -128.5q198 -60 259 -223 q22 -57 22 -148.5t-42 -173t-114 -135.5q-143 -106 -364 -106q-259 0 -426 78z"/>
<glyph unicode="И" horiz-adv-x="1392" d="M78 0v94h139v1211h-133v92h389v-92h-143v-990h4l741 930v60h-174v92h420v-92h-137v-1211h137v-94h-393v94h143v996h-6l-735 -934v-62h137v-94h-389z"/>
<glyph unicode="Й" horiz-adv-x="1392" d="M78 0v94h139v1211h-133v92h389v-92h-143v-990h4l741 930v60h-174v92h420v-92h-137v-1211h137v-94h-393v94h143v996h-6l-735 -934v-62h137v-94h-389zM383 1769l78 54q53 -72 116.5 -122t122.5 -50q132 0 283 151l45 -39q-150 -207 -334 -207q-132 0 -250 137 q-32 38 -61 76z"/>
<glyph unicode="К" horiz-adv-x="1198" d="M82 0v94h125v1211h-125v94h371v-94h-129v-1211h129v-94h-371zM397 719v31l449 583q35 45 63.5 62.5t66.5 16.5q76 -2 146 -36l-10 -73l-178 -21l-422 -543l479 -633l187 -20v-74q-148 -51 -226 -13q-30 15 -59 50z"/>
<glyph unicode="Л" horiz-adv-x="1325" d="M20 47q117 37 186.5 123t106.5 221t47.5 318.5t10.5 416.5v177h-176v96h1028v-94h-129v-1209h129v-96h-373v96h125v1207h-494v-152q0 -229 -12 -434t-56 -364.5t-132 -263t-242 -130.5z"/>
<glyph unicode="М" horiz-adv-x="1689" d="M82 0v94h125v1211h-125v94h258l500 -1133h12l498 1133h258v-94h-127v-1211h127v-94h-373v94h131v1094h-4l-100 -234l-363 -817h-113l-467 1051h-4l4 -1094h134v-94h-371z"/>
<glyph unicode="Н" horiz-adv-x="1359" d="M82 0v96h127v1209h-127v94h373v-94h-129v-517h706v517h-127v94h373v-94h-129v-1209h129v-96h-373v96h127v592h-706v-592h129v-96h-373z"/>
<glyph unicode="О" horiz-adv-x="1327" d="M102 676.5q0 152.5 29 286t95 234.5q147 222 450 222q304 0 440 -224q109 -178 109 -509q0 -146 -35 -274.5t-104 -223.5q-146 -202 -410 -202q-446 0 -543 408q-31 130 -31 282.5zM221 674q0 -289 107.5 -440.5t347.5 -151.5q209 0 326 178q104 160 104 418 q0 114 -15.5 227t-61.5 206q-105 212 -353 212q-251 0 -365 -201q-90 -159 -90 -448z"/>
<glyph unicode="П" horiz-adv-x="1386" d="M82 0v96h127v1202h-127v101h1196v-101h-129v-1202h129v-96h-377v96h127v1202h-700v-1202h129v-96h-375z"/>
<glyph unicode="Р" horiz-adv-x="1110" d="M82 0v94h129v1211h-129v94h553q181 0 291 -97q123 -107 123 -298q0 -153 -79 -266q-105 -148 -319 -148h-323v-496h172v-94h-418zM328 684h317q193 0 261 162q26 61 26 145t-22.5 141.5t-62.5 96.5q-78 76 -208 76h-311v-621z"/>
<glyph unicode="С" horiz-adv-x="1116" d="M102 690q0 268 117 472q147 257 467 257q203 0 346 -55v-295h-98v219q-111 33 -238 33t-216 -46t-146 -129q-113 -162 -113 -460q0 -279 88 -420q51 -82 143.5 -131t260 -49t317.5 49l25 -88q-168 -61 -350.5 -61t-292 49t-178.5 141q-132 178 -132 514z"/>
<glyph unicode="Т" horiz-adv-x="1060" d="M31 1102v297h997l2 -297h-100v203h-340v-1211h151v-94h-413v94h147v1211h-346v-203h-98z"/>
<glyph unicode="У" horiz-adv-x="1126" d="M10 1305v94h363v-94h-133l190 -506l139 -385h9l133 383l184 508h-137v94h356v-94h-106l-404 -1108q-41 -109 -92 -156t-141 -47q-104 0 -213 33l20 84q123 -25 173 -25t88 29.5t69 113.5l37 103h-53l-371 973h-111z"/>
<glyph unicode="Ф" horiz-adv-x="1564" d="M82 702q0 209 154 350q176 164 499 179v74h-145v94h409v-94h-147v-74q329 -11 494 -173q137 -136 137 -356q0 -102 -44 -195t-126 -163q-173 -148 -461 -160v-88h147v-96h-409v96h145v88q-344 14 -498.5 148.5t-154.5 369.5zM193 686q0 -386 542 -412v865 q-282 -15 -423 -147q-119 -112 -119 -306zM852 274q248 14 384 131t136 297q0 282 -272 391q-99 40 -248 46v-865z"/>
<glyph unicode="Х" horiz-adv-x="1236" d="M41 0v96h123l387 633l-356 576h-123v94h391v-94h-144l302 -496l305 496h-150v94h398v-94h-123l-369 -586l385 -623h129v-96h-410v96h158l-334 543l-323 -543h166v-96h-412z"/>
<glyph unicode="Ц" horiz-adv-x="1359" d="M80 0v94h127v1211h-127v92h375v-92h-129v-1211h700v1211h-127v92h377v-92h-129v-1211h127v-426h-98v332h-1096z"/>
<glyph unicode="Ч" horiz-adv-x="1271" d="M61 1303v94h375v-94h-131v-392q0 -193 170 -231q53 -12 121 -12q175 0 348 77v558h-125v94h371v-94h-131v-1209h131v-94h-371v94h125v551q-205 -78 -374 -78t-274.5 76t-105.5 229v431h-129z"/>
<glyph unicode="Ш" horiz-adv-x="1853" d="M82 0v94h127v1211h-127v92h375v-92h-129v-1211h542v1211h-127v92h377v-92h-129v-1211h531v1211h-127v92h377v-92h-130v-1211h130v-94h-1690z"/>
<glyph unicode="Щ" horiz-adv-x="1853" d="M82 0v94h127v1211h-127v92h375v-92h-129v-1211h542v1211h-127v92h377v-92h-129v-1211h531v1211h-127v92h377v-92h-130v-1211h125v-426h-98v332h-1587z"/>
<glyph unicode="Ъ" horiz-adv-x="1495" d="M31 1122v275h729v-92h-129v-496h350q215 0 333 -133q99 -111 99 -277q0 -196 -119 -301q-110 -98 -288 -98h-631v94h139v1211h-385v-183h-98zM631 94h368q130 0 211 75q88 82 88 230q0 155 -103 242q-87 74 -222 74h-342v-621z"/>
<glyph unicode="Ы" horiz-adv-x="1683" d="M82 0v94h139v1211h-139v94h401v-94h-145v-496h350q215 0 333 -133q99 -111 99 -277q0 -196 -118 -301q-112 -98 -289 -98h-631zM338 94h369q204 0 275 170q24 58 24 138.5t-29 140t-75 98.5q-87 74 -222 74h-342v-621zM1221 0v94h125v1211h-125v92h370v-92h-129v-1211 h129v-94h-370z"/>
<glyph unicode="Ь" horiz-adv-x="1212" d="M92 0v94h139v1211h-139v94h402v-94h-146v-496h350q215 0 333 -133q99 -111 99 -277q0 -196 -118 -301q-112 -98 -289 -98h-631zM348 94h369q130 0 211 75q88 82 88 230q0 154 -104 242q-87 74 -222 74h-342v-621z"/>
<glyph unicode="Э" horiz-adv-x="1118" d="M61 45l27 90q163 -53 320 -53t252.5 52t152.5 137q105 157 105 419l-576 -8v111l576 -13q-6 391 -243 502q-83 39 -209.5 39t-262.5 -37v-219h-99v295q151 59 351 59t309.5 -63.5t169.5 -163.5q102 -168 102 -479q0 -515 -330 -672q-116 -55 -278 -55q-215 0 -367 59z "/>
<glyph unicode="Ю" horiz-adv-x="1808" d="M82 0v96h127v1209h-127v92h375v-92h-129v-517h299q28 443 301 580q102 51 259 51t259 -61.5t160.5 -162.5t79 -232.5t20.5 -277t-32 -274t-96 -223.5q-139 -202 -400 -202q-443 0 -526 408q-27 130 -27 292v2h-297v-592h129v-96h-375zM743 677q0 -292 97.5 -443.5 t337.5 -151.5q209 0 315 178q94 157 94 418q0 114 -12 227t-55 206q-98 212 -342 212q-250 0 -355 -201q-80 -153 -80 -445z"/>
<glyph unicode="Я" horiz-adv-x="1239" d="M20 10v68l146 18l268 543q-165 29 -238 147q-55 87 -55 200t33 189t89 125q111 99 292 99h553v-94h-129v-1211h137v-94h-405v94h151v531h-317l-269 -549q-18 -41 -38.5 -65.5t-82 -24.5t-135.5 24zM258 999q0 -159 106 -229q76 -51 201 -51h297v586h-311q-129 0 -208 -75 q-85 -81 -85 -231z"/>
<glyph unicode="а" horiz-adv-x="978" d="M72 250.5q0 89.5 26.5 142.5t74.5 90q93 71 259 80l266 15v81q0 143 -48 197q-46 53 -184 53t-300 -57l-31 82q172 80 341 80t250 -73t81 -253v-594h143l8 -67q-77 -35 -139.5 -35t-90.5 22.5t-30 98.5l-4 2q-143 -119 -284 -127q-33 -2 -87.5 -2t-108.5 28.5t-86 71.5 q-56 75 -56 164.5zM193 279q0 -197 204 -197q157 0 301 135v272l-280 -14q-113 -6 -169 -58t-56 -138z"/>
<glyph unicode="б" horiz-adv-x="983" d="M82 465q0 375 28 511q59 295 400 425q70 26 129 51q73 31 166 70l41 -88q-127 -69 -246.5 -108.5t-189.5 -82.5t-114 -103q-83 -115 -103 -329h4q41 84 130 134t189 50q385 0 385 -510q0 -334 -215 -455q-82 -46 -206 -46t-200.5 45t-120.5 115q-77 121 -77 321zM199 463 q0 -166 51 -256q70 -125 246 -125q161 0 234 128q56 98 56 271q0 74 -10 149t-40 134q-69 133 -238 133q-160 -4 -237 -143q-62 -113 -62 -291z"/>
<glyph unicode="в" horiz-adv-x="950" d="M66 0v90h106v817h-100v90h467q160 0 240.5 -70.5t80.5 -183.5q0 -143 -125 -217q158 -61 158 -250q0 -117 -92 -200q-84 -76 -207 -76h-528zM283 90h266q117 0 179 60q52 52 52 135q0 77 -58 129q-65 57 -173 57h-266v-381zM283 565h254q96 0 152 48t56 122t-52 123 t-173 49h-237v-342z"/>
<glyph unicode="г" horiz-adv-x="829" d="M66 0v90h104v817h-98v90h725v-268h-90v178h-431v-817h152v-90h-362z"/>
<glyph unicode="д" horiz-adv-x="1103" d="M61 90h84q146 106 165 542q5 113 5 206v69h-118v90h721v-907h90v-356h-93v266h-761v-266h-93v356zM285 90h522v817h-385v-71q0 -579 -137 -746z"/>
<glyph unicode="е" horiz-adv-x="946" d="M82 496q0 181 68 320q61 123 187 174q67 28 161 28t159.5 -28.5t107.5 -73t64.5 -98.5t31.5 -106q11 -65 11 -165v-78h-675q0 -177 58 -269q75 -118 241 -118q150 0 317 74l33 -76q-165 -90 -348 -90q-232 0 -334 148q-82 120 -82 358zM199 563h563q0 262 -139 333 q-51 26 -129 26t-132.5 -30t-89.5 -80q-59 -86 -73 -249z"/>
<glyph unicode="ж" horiz-adv-x="1454" d="M41 16v62l154 14l321 426l-315 387l-133 15l-7 61q51 31 113 31q29 0 52.5 -9.5t52.5 -44.5l352 -432v-18l-355 -469q-27 -35 -53 -44t-55 -9q-80 0 -127 30zM532 0v90h138v815h-138v92h388v-92h-142v-815h148v-90h-394zM825 516v19l338 423q45 54 109 54q63 0 112 -31 l-6 -61l-133 -15l-309 -379l326 -434l153 -14v-62q-49 -30 -127 -30q-29 0 -55.5 9t-52.5 44z"/>
<glyph unicode="з" horiz-adv-x="888" d="M51 57l31 76q165 -57 302 -57q306 0 306 225q0 105 -90 155q-70 38 -168 38h-164v94h140q165 0 226 85q25 34 25 98.5t-54 109.5t-183 45t-242 -39v-182h-90v243q159 72 325.5 72t259.5 -62.5t93 -181.5q0 -85 -56 -150q-47 -55 -118 -73v-6q86 -20 144.5 -84t58.5 -156 t-36 -151.5t-93 -97.5q-109 -72 -283 -72q-129 0 -268 44q-39 13 -66 27z"/>
<glyph unicode="и" horiz-adv-x="1120" d="M41 907v90h256v-809h8l516 809h107v-903h151v-67q-77 -35 -139.5 -35t-90.5 22.5t-30 98.5v706h-6l-522 -819h-101v907h-149z"/>
<glyph unicode="й" horiz-adv-x="1120" d="M41 907v90h256v-809h8l516 809h107v-903h151v-67q-77 -35 -139.5 -35t-90.5 22.5t-30 98.5v706h-6l-522 -819h-101v907h-149zM227 1321l78 53q53 -72 116.5 -122t123.5 -50q133 0 282 152l45 -39q-150 -207 -333 -207q-132 0 -250 136q-33 38 -62 77z"/>
<glyph unicode="к" horiz-adv-x="985" d="M31 907v90h278v-907h146v-90h-402v90h148v817h-170zM348 516v19l357 423q29 35 54 44.5t54 9.5q62 0 113 -31l-6 -61l-134 -9l-325 -383l346 -438l147 -14v-60q-49 -30 -125 -30q-29 0 -54 9t-54 44z"/>
<glyph unicode="л" horiz-adv-x="1079" d="M37 59q86 35 136 90.5t75.5 143.5t32 213t6.5 301v100h-158v90h758v-907h131v-90h-369v90h129v817h-385v-82q0 -166 -6 -311t-38 -258t-98.5 -187.5t-184.5 -99.5z"/>
<glyph unicode="м" horiz-adv-x="1441" d="M47 907v90h272l293 -585l107 -222h2l102 224l277 583h256v-90h-144v-813h154v-67q-77 -35 -138.5 -35t-88.5 22.5t-29 98.5v680h-8l-78 -172l-254 -535h-100l-264 520l-97 199h-6v-805h-102v907h-154z"/>
<glyph unicode="н" horiz-adv-x="1075" d="M25 907v90h247v-422h527v422h108v-903h152v-67q-77 -35 -140 -35t-91.5 22.5t-28.5 98.5v370h-529v-483h-108v907h-137z"/>
<glyph unicode="о" horiz-adv-x="985" d="M82 492q0 352 223 480q80 46 198 46t195.5 -46t123.5 -120q81 -130 81 -356q0 -347 -215 -465q-82 -45 -204 -45t-198.5 42t-121.5 112q-82 129 -82 352zM199 489q0 -186 54 -282q70 -125 249 -125q286 0 286 420t-286 420q-166 0 -243 -140q-60 -108 -60 -293z"/>
<glyph unicode="п" horiz-adv-x="1148" d="M53 905v92h1037v-92h-148v-811h152v-67q-77 -35 -140 -35t-90.5 22.5t-29.5 98.5v792h-527v-905h-110v905h-144z"/>
<glyph unicode="р" horiz-adv-x="1054" d="M20 907v90h281v-102q57 47 138 81t176 34t165 -40t113 -108q80 -125 80 -346q0 -380 -211 -497q-76 -42 -182 -42q-166 0 -279 78v-391h176v-90h-450v90h161v1243h-168zM301 156q70 -52 194 -73q42 -7 89.5 -7t99 22.5t90.5 74.5q82 109 82 347q0 310 -158 372 q-51 19 -99 19t-89 -10t-82 -27q-86 -34 -127 -75v-643z"/>
<glyph unicode="с" horiz-adv-x="886" d="M82 485q0 338 212 479q83 56 231.5 56t275.5 -57v-242h-90v176q-96 29 -187.5 29t-152 -34t-99.5 -92q-75 -113 -75 -315q0 -289 153 -373q58 -32 171.5 -32t277.5 70l32 -74q-145 -86 -333 -86q-416 0 -416 495z"/>
<glyph unicode="т" horiz-adv-x="870" d="M41 768v229h788v-229h-92v139h-248v-817h134v-90h-367v90h127v817h-250v-139h-92z"/>
<glyph unicode="у" horiz-adv-x="1030" d="M33 905v92h188l213 -682l68 -227h10l268 817h-135v92h346v-92h-104l-377 -1141q-35 -111 -87 -156.5t-142 -45.5q-103 0 -213 32l20 84q118 -24 170.5 -24t91.5 29.5t68 113.5l65 203h-55l-293 905h-102z"/>
<glyph unicode="ф" horiz-adv-x="1280" d="M82 489q0 361 276 478q97 41 230 45v350h-164v90h266v-440q384 -6 478 -298q30 -91 30 -198.5t-25.5 -200t-86.5 -163.5q-129 -151 -396 -166v-320h184v-92h-448v92h162v320q-266 11 -394 152q-112 123 -112 351zM190 496q0 -293 210 -384q75 -32 188 -34v837 q-319 -11 -380 -257q-18 -74 -18 -162zM690 78q210 7 312 129q88 106 88 297q0 192 -82 292q-96 115 -318 119v-837z"/>
<glyph unicode="х" horiz-adv-x="950" d="M20 0v90h130l260 434l-222 383h-155v90h221l233 -403l181 313h-86v90h331v-90h-131l-239 -403l256 -414h133v-90h-338v90h84l-209 348l-203 -348h111v-90h-357z"/>
<glyph unicode="ц" horiz-adv-x="1107" d="M61 905v92h232l2 -903h524v811h-98v92h313v-92h-106v-811h119v-360h-95v266h-886v94h120v811h-125z"/>
<glyph unicode="ч" horiz-adv-x="1095" d="M20 907v90h265l2 -264q0 -128 23.5 -168.5t60.5 -58t102 -17.5q180 0 320 76v434h110v-913h148l4 -68q-74 -34 -138.5 -34t-92 22.5t-29.5 97.5l-2 369q-133 -82 -336 -82q-182 0 -244 106q-37 63 -37 205v205h-156z"/>
<glyph unicode="ш" horiz-adv-x="1495" d="M61 905v92h234v-903h395v811h-98v92h313v-92h-106v-811h407v811h-98v92h313v-92h-106v-811h119v-94h-1368v94h120v811h-125z"/>
<glyph unicode="щ" horiz-adv-x="1495" d="M61 905v92h234v-903h395v811h-98v92h313v-92h-106v-811h407v811h-98v92h313v-92h-106v-811h119v-360h-95v266h-1273v94h120v811h-125z"/>
<glyph unicode="ъ" horiz-adv-x="1183" d="M29 729v268h487v-407h272q178 0 264 -95q70 -77 70 -200q0 -140 -92 -219q-88 -76 -225 -76h-395v907h-289v-178h-92zM516 90h289q94 0 153.5 50t59.5 156t-67.5 154t-168.5 48h-266v-408z"/>
<glyph unicode="ы" horiz-adv-x="1359" d="M39 907v90h264v-407h272q178 0 264 -95q70 -77 70 -200q0 -140 -92 -219q-88 -76 -225 -76h-393v907h-160zM303 90h289q94 0 153.5 50t59.5 156t-67.5 154t-168.5 48h-266v-408zM930 907v90h227v-903h152v-67q-77 -35 -140 -35t-90.5 22.5t-29.5 98.5v794h-119z"/>
<glyph unicode="ь" horiz-adv-x="970" d="M39 907v90h264v-407h272q178 0 264 -95q70 -77 70 -200q0 -140 -92 -219q-88 -76 -225 -76h-393v907h-160zM303 90h289q94 0 153.5 50t59.5 156t-67.5 154t-168.5 48h-266v-408z"/>
<glyph unicode="э" horiz-adv-x="942" d="M61 76l33 74q164 -70 274.5 -70t173 32.5t102.5 89.5q79 111 79 283l-457 -6v96l455 -10q-10 166 -85 263.5t-222 97.5q-111 0 -207 -29v-176h-90v242q120 57 274 57t235 -47t128 -120q84 -130 84 -333q0 -232 -107 -374q-119 -156 -340 -156q-183 0 -330 86z"/>
<glyph unicode="ю" horiz-adv-x="1394" d="M41 907v90h262v-422h213q28 303 231 406q73 37 181.5 37t184 -46t119.5 -120q81 -136 81 -356q0 -345 -213 -465q-80 -45 -197 -45t-191.5 41t-118.5 109q-81 124 -81 343h-209v-479h-106v907h-156zM629 489q0 -192 49 -282q68 -125 244 -125q151 0 223 134q53 99 53 275 q0 71 -10 146.5t-41 138.5q-71 146 -225 146q-156 0 -233 -140q-60 -108 -60 -293z"/>
<glyph unicode="я" horiz-adv-x="1003" d="M20 6v72l123 12q51 94 98.5 178t98.5 178q-120 21 -176 107q-41 61 -41 143.5t25.5 137.5t70.5 92q86 71 230 71h442v-92h-100v-811h151v-67q-77 -35 -139.5 -35t-90.5 22.5t-30 98.5v323h-236l-204 -381q-16 -27 -40 -48t-74 -21t-108 20zM229 705q0 -101 79 -147 q57 -32 151 -32h223v381h-242q-92 0 -151.5 -50t-59.5 -152z"/>
<glyph unicode="ё" horiz-adv-x="946" d="M82 496q0 181 68 320q61 123 187 174q67 28 161 28t159.5 -28.5t107.5 -73t64.5 -98.5t31.5 -106q11 -65 11 -165v-78h-675q0 -177 58 -269q75 -118 241 -118q150 0 317 74l33 -76q-165 -90 -348 -90q-232 0 -334 148q-82 120 -82 358zM199 563h563q0 262 -139 333 q-51 26 -129 26t-132.5 -30t-89.5 -80q-59 -86 -73 -249zM238 1185q0 34 24.5 56.5t58 22.5t57 -21.5t23.5 -56.5t-23.5 -55.5t-58.5 -20.5t-58 20.5t-23 54.5zM610 1185q0 34 22.5 56.5t56.5 22.5t58.5 -21.5t24.5 -56.5t-24.5 -55.5t-60.5 -20.5t-56.5 20.5t-20.5 54.5z "/>
<glyph unicode="ђ" horiz-adv-x="1042" d="M4 1362v90h283v-258h473v-80h-473v-254q184 82 321 82q342 0 342 -508q0 -226 -83 -342q-97 -137 -314 -137h-21q-8 0 -22 2l4 82q174 0 246 81q80 90 80 320q0 326 -150 386q-47 18 -104 18q-135 0 -299 -78v-766h-111v1114h-110v80h110v168h-172z"/>
<glyph unicode="ѓ" horiz-adv-x="829" d="M66 0v90h104v817h-98v90h725v-268h-90v178h-431v-817h152v-90h-362zM377 1141l227 323l101 -82l-269 -284z"/>
<glyph unicode="є" horiz-adv-x="886" d="M82 485q0 338 212 479q83 56 231.5 56t275.5 -57v-242h-90v176q-96 29 -184.5 29t-144.5 -28t-95 -78q-75 -97 -88 -269l454 10v-96l-456 6q0 -391 299 -391q139 0 303 70l32 -74q-145 -86 -333 -86q-416 0 -416 495z"/>
<glyph unicode="ѕ" horiz-adv-x="835" d="M61 287h89l6 -158q96 -49 231 -49q124 0 174.5 28.5t71 65.5t20.5 87t-19.5 81t-53.5 54q-58 39 -141.5 61t-143 41.5t-107.5 50.5q-106 70 -106 201q0 138 104 208q90 60 234 60q165 0 274 -72l6 -225h-90l-6 168q-85 35 -182.5 35t-163 -38t-65.5 -141q0 -110 160 -154 q40 -11 86 -23.5t106.5 -32t108.5 -51.5q106 -72 106 -220q0 -136 -112 -212q-94 -64 -255 -64q-212 0 -325 80z"/>
<glyph unicode="і" horiz-adv-x="546" d="M109 907v90h227v-903h151v-67q-77 -35 -139.5 -35t-90.5 22.5t-30 98.5v794h-118zM195 1244q0 34 23.5 57.5t57 23.5t57 -23.5t23.5 -57.5t-23.5 -57.5t-57.5 -23.5t-57 23.5t-23 57.5z"/>
<glyph unicode="ї" horiz-adv-x="546" d="M-8 1170.5q0 33.5 24.5 56t58.5 22.5t57.5 -21.5t23.5 -56.5t-23.5 -55t-58.5 -20t-58.5 20.5t-23.5 54zM109 907v90h227v-903h151v-67q-77 -35 -139.5 -35t-90.5 22.5t-30 98.5v794h-118zM365 1170.5q0 33.5 22.5 56t56 22.5t58 -21.5t24.5 -56.5t-24.5 -55t-60.5 -20 t-56 20.5t-20 54z"/>
<glyph unicode="ј" horiz-adv-x="522" d="M-20 -360q143 79 192 152q47 70 47 196v919h-149v90h258v-985q0 -187 -63 -276q-69 -97 -251 -172zM186 1244q0 34 23.5 57.5t57.5 23.5t57.5 -23.5t23.5 -57.5t-23.5 -57.5t-57.5 -23.5t-57.5 23.5t-23.5 57.5z"/>
<glyph unicode="љ" horiz-adv-x="1501" d="M33 59q86 35 136 90.5t75.5 143.5t32 213t6.5 301v100h-158v90h709v-407h272q177 0 263 -95q71 -78 71 -200q0 -140 -92 -219q-88 -76 -226 -76h-393v907h-340v-82q0 -166 -6 -311t-38 -258t-98.5 -187.5t-185.5 -99.5zM834 90h288q94 0 153.5 50t59.5 156t-67.5 154 t-167.5 48h-266v-408z"/>
<glyph unicode="њ" horiz-adv-x="1511" d="M41 907v90h246v-407h452v317h-159v90h264v-407h272q177 0 263 -95q71 -78 71 -200q0 -140 -92 -219q-88 -76 -225 -76h-394v498h-452v-498h-107v907h-139zM844 90h289q94 0 153.5 50t59.5 156t-68 154t-168 48h-266v-408z"/>
<glyph unicode="ћ" horiz-adv-x="1138" d="M41 1362v90h266v-258h473v-76h-473v-276q88 53 185.5 82.5t186.5 29.5t145.5 -30.5t81.5 -76.5q36 -64 36 -204v-549h152v-67q-77 -35 -140 -35t-90.5 22.5t-29.5 98.5v499q0 127 -24 168t-60.5 58.5t-102.5 17.5q-134 0 -340 -106v-750h-110v1118h-111v76h111v168h-156z "/>
<glyph unicode="ќ" horiz-adv-x="985" d="M31 907v90h278v-907h146v-90h-402v90h148v817h-170zM348 516v19l357 423q29 35 54 44.5t54 9.5q62 0 113 -31l-6 -61l-134 -9l-325 -383l346 -438l147 -14v-60q-49 -30 -125 -30q-29 0 -54 9t-54 44zM399 1141l228 323l100 -82l-268 -284z"/>
<glyph unicode="ў" horiz-adv-x="1030" d="M33 905v92h188l213 -682l68 -227h10l268 817h-135v92h346v-92h-104l-377 -1141q-35 -111 -87 -156.5t-142 -45.5q-103 0 -213 32l20 84q118 -24 170.5 -24t91.5 29.5t68 113.5l65 203h-55l-293 905h-102zM201 1321l78 53q53 -72 116.5 -122t122.5 -50q134 0 283 152 l45 -39q-150 -207 -334 -207q-132 0 -250 136q-33 38 -61 77z"/>
<glyph unicode="џ" horiz-adv-x="1107" d="M61 907v90h232l2 -907h524v817h-98v90h311v-90h-104v-817h116v-90h-442v-283h-96v283h-440v90h120v817h-125z"/>
<glyph unicode="Ґ" horiz-adv-x="1050" d="M82 0v94h135v1211h-127v92h821v264h99v-356h-676v-1211h198v-94h-450z"/>
<glyph unicode="ґ" horiz-adv-x="829" d="M66 0v88h104v819h-98v90h635v211h90v-301h-521v-819h152v-88h-362z"/>
<glyph unicode="ә" horiz-adv-x="946" d="M94 461v78h676q0 387 -299 387q-125 0 -235 -42q-39 -14 -82 -32l-33 76q165 90 348 90q232 0 334 -148q82 -120 82 -358q0 -181 -69 -320q-60 -122 -186 -174q-67 -28 -161 -28t-159.5 28.5t-107.5 72.5t-64.5 98.5t-31.5 106.5q-12 63 -12 165zM205 444 q0 -263 139 -332q51 -26 129 -26t132 29.5t89 80.5q60 86 74 248h-563z"/>
<glyph unicode="–" horiz-adv-x="1024" d="M55 475v96h920v-96h-920z"/>
<glyph unicode="—" horiz-adv-x="2048" d="M55 475v96h1927v-96h-1927z"/>
<glyph unicode="‘" horiz-adv-x="401" d="M109 1154q0 44 13 85t38 80q52 83 133 125l29 -37q-76 -72 -84 -176q61 -21 61 -90q0 -35 -26.5 -62.5t-65.5 -27.5t-68.5 29.5t-29.5 73.5z"/>
<glyph unicode="’" horiz-adv-x="401" d="M109 1087q74 70 84 177q-62 21 -62 90q0 35 26.5 62.5t65.5 27.5t69 -30t30 -74t-13.5 -85t-38.5 -79q-54 -87 -133 -125z"/>
<glyph unicode="‚" horiz-adv-x="380" d="M76 -172q35 35 56.5 68.5t25.5 87.5q-62 21 -62 86q0 35 27 61.5t65.5 26.5t66.5 -29t28 -89.5t-49.5 -134t-129.5 -114.5z"/>
<glyph unicode="“" horiz-adv-x="626" d="M109 1154q0 44 13 85t38 80q52 83 133 125l29 -37q-76 -72 -84 -176q61 -21 61 -90q0 -35 -26.5 -62.5t-65.5 -27.5t-68.5 29.5t-29.5 73.5zM344 1154q0 44 13.5 85t38.5 80q52 84 132 125l29 -37q-76 -72 -84 -176q62 -21 62 -90q0 -35 -27 -62.5t-66 -27.5t-68.5 29.5 t-29.5 73.5z"/>
<glyph unicode="”" horiz-adv-x="626" d="M111 1087q74 70 84 177q-62 21 -62 90q0 35 26.5 62.5t65.5 27.5t69 -30t30 -74t-13.5 -85t-38.5 -79q-54 -87 -133 -125zM346 1087q76 72 84 177q-61 21 -61 90q0 35 26.5 62.5t65.5 27.5t68.5 -30t29.5 -74t-13.5 -85t-37.5 -79q-56 -87 -133 -125z"/>
<glyph unicode="„" horiz-adv-x="600" d="M76 -172q35 35 56.5 68.5t25.5 87.5q-62 21 -62 86q0 35 27 61.5t65.5 26.5t66.5 -29t28 -89.5t-49.5 -134t-129.5 -114.5zM309 -172q35 35 56.5 68.5t25.5 87.5q-61 21 -61 86q0 35 26.5 61.5t65.5 26.5t66.5 -29t27.5 -89.5t-49 -134t-129 -114.5z"/>
<glyph unicode="†" horiz-adv-x="935" d="M82 877v106h336v416h104v-416h336v-106h-336v-992h-104v992h-336z"/>
<glyph unicode="‡" horiz-adv-x="935" d="M82 279v106h336v492h-336v106h336v416h104v-416h336v-106h-336v-492h336v-106h-336v-394h-104v394h-336z"/>
<glyph unicode="•" horiz-adv-x="589" d="M94 565q0 81 60 143q58 60 139 60q80 0 140.5 -60.5t60.5 -142.5q0 -78 -60 -140q-59 -60 -141 -60q-83 0 -139 60q-60 63 -60 140z"/>
<glyph unicode="…" horiz-adv-x="1191" d="M90 69q0 36 25.5 61.5t62.5 25.5t62.5 -25.5t25.5 -61.5t-25.5 -62.5t-61.5 -26.5t-62.5 26.5t-26.5 62.5zM494 69q0 36 25.5 61.5t62.5 25.5t62.5 -25.5t25.5 -61.5t-26 -62.5t-61.5 -26.5t-62 26.5t-26.5 62.5zM928 69q0 36 25.5 61.5t62.5 25.5t62.5 -25.5t25.5 -61.5 t-25.5 -62.5t-61.5 -26.5t-62.5 26.5t-26.5 62.5z"/>
<glyph unicode="‰" horiz-adv-x="2467" d="M84 944q0 177 58 278q84 146 270 146q187 0 263 -152q48 -95 48 -276q0 -64 -14.5 -136.5t-50.5 -131.5q-83 -135 -250 -135q-190 0 -267 129q-57 96 -57 278zM188 942q0 -151 42 -226q52 -95 182 -95q113 0 166 105q40 77 40 218q0 142 -24 204q-53 134 -182 134 q-224 0 -224 -340zM514 -47l582 1477h84l-578 -1477h-88zM975 401q0 177 58 277q84 147 270 147q187 0 263 -151q48 -98 48 -276q0 -64 -14.5 -137t-51.5 -132q-85 -135 -250 -135q-188 0 -266 130q-57 94 -57 277zM1079 436q0 -103 8.5 -161t32.5 -102q53 -95 183 -95 q113 0 167 105q39 77 39 213q0 50 -4 108.5t-25 111.5q-48 123 -177 123q-133 0 -187 -121q-37 -79 -37 -182zM1718 401q0 175 58 277q84 147 270 147q187 0 263 -151q48 -96 48 -276q0 -64 -14 -137t-51 -132q-85 -135 -250 -135q-189 0 -266 130q-58 97 -58 277zM1823 437 q0 -104 8 -162t33 -102q52 -95 182 -95q113 0 166 105q41 79 41 213q0 50 -4 108.5t-25 111.5q-48 123 -178 123q-133 0 -188 -121q-35 -77 -35 -181z"/>
<glyph unicode="‹" horiz-adv-x="614" d="M133 338v80l281 307l47 -39l-203 -309l205 -307l-45 -37z"/>
<glyph unicode="›" horiz-adv-x="614" d="M131 70l205 307l-203 309l47 39l281 -307v-80l-285 -305z"/>
<glyph unicode="⁄" horiz-adv-x="219" d="M-207 -47l582 1477h84l-578 -1477h-88z"/>
<glyph unicode="€" d="M70 559v76h843v-76h-639q13 -220 104 -337q109 -140 340 -140q126 0 249 29v147h90v-213q-97 -38 -205.5 -48.5t-151.5 -10.5q-256 0 -396 156q-132 149 -140 417h-94zM70 735v76h100q19 220 140 375q147 186 399 186q183 0 323 -53v-244h-92v170q-101 33 -213 33 t-187 -33t-130 -94q-104 -117 -129 -340h632v-76h-843z"/>
<glyph unicode="™" horiz-adv-x="1458" d="M72 1231v168h510v-168h-64v100h-151v-520h88v-61h-260v61h84v520h-142v-100h-65zM639 748v63h72v518h-72v70h162l215 -459l223 459h158v-70h-72v-518h72v-63h-226v63h72v426h-4l-192 -385h-66l-186 373h-2v-414h73v-63h-227z"/>
<glyph unicode="∂" d="M113 434q0 208 117 333q115 122 288 122q228 0 354 -162q2 324 -115.5 491.5t-330.5 167.5h-56q-24 0 -59 -6l-6 86q71 11 137 11q285 0 428 -233q121 -198 121 -535q0 -356 -127 -548q-121 -181 -338 -181q-184 0 -294 114q-119 123 -119 340zM231 423q0 -81 25 -148.5 t67 -109.5q81 -81 212 -81q169 0 262 165q77 137 77 347q-80 111 -162.5 156t-172 45t-145.5 -32t-92 -82t-53.5 -114.5t-17.5 -145.5z"/>
<glyph unicode="∏" horiz-adv-x="1359" d="M82 -82h127v1380h-127v101h1196v-101h-129v-1380h129v-96h-377v96h127v1380h-700v-1380h129v-96h-375v96z"/>
<glyph unicode="∑" horiz-adv-x="1046" d="M61 -86l383 723l-383 668v94h912v-297h-99v203h-681l372 -648v-39l-372 -702h700v221h102v-317h-934v94z"/>
<glyph unicode="√" d="M63 629l197 100l223 -731h9l452 1538h98l-495 -1653h-129l-225 715l-99 -47z"/>
<glyph unicode="∞" horiz-adv-x="1556" d="M109 512q0 122 85 205q85 84 216 84q142 0 285 -133q42 -39 83 -82q120 115 170 146q107 69 215 69q126 0 206 -78q79 -77 79 -201q0 -125 -90 -211q-86 -82 -225.5 -82t-356.5 211q-111 -105 -162 -140q-106 -71 -219 -71q-118 0 -203 83q-83 82 -83 200zM219 512 q0 -80 56.5 -135t152 -55t228.5 124q34 33 63 62q-89 94 -136 129q-98 72 -183 72t-133 -58.5t-48 -138.5zM842 518q103 -108 145.5 -138t78.5 -44t80 -14t80 16t60 44q51 58 51 144t-56 134.5t-116.5 48.5t-102.5 -18.5t-81 -47.5q-65 -48 -139 -125z"/>
<glyph unicode="∫" horiz-adv-x="655" d="M-10 -317l16 84q79 -9 120 -9t77.5 17.5t56.5 48.5q33 49 33 194.5t-9.5 292t-20.5 287.5q-30 385 -30 608q0 152 73 242t202 90q47 0 137 -20l-14 -84q-70 8 -103 8q-115 0 -151.5 -62.5t-36.5 -202t9 -280.5t21 -279q31 -335 31 -624q0 -152 -72.5 -242t-201.5 -90 q-51 0 -137 21z"/>
<glyph unicode="≈" d="M143 487q31 66 88 106t116.5 40t115 -15.5t111.5 -33.5q145 -49 194 -49l141 98l54 -37q-29 -66 -86.5 -111t-125 -45t-119.5 15.5t-101.5 33t-94.5 33t-86 15.5l-151 -97zM143 713q31 66 88 109.5t116.5 43.5t115 -15t111.5 -33q148 -50 194 -50l141 98l54 -39 q-29 -66 -86.5 -110.5t-125 -44.5t-119.5 15t-101.5 32.5t-94.5 33t-86 15.5l-151 -96z"/>
<glyph unicode="≠" d="M150 430v94h262l166 187h-428v96h514l178 199l71 -64l-120 -135h161v-96h-247l-168 -187h415v-94h-501l-217 -244l-70 62l162 182h-178z"/>
<glyph unicode="≤" d="M150 0v94h804v-94h-804zM150 524v84l804 312v-111l-692 -242l692 -248v-110z"/>
<glyph unicode="≥" d="M147 211v111l699 247l-699 242v111l811 -312v-84zM152 2v94h804v-94h-804z"/>
<glyph unicode="◊" horiz-adv-x="1067" d="M102 713l390 684h86l387 -684l-387 -713h-86zM207 713l330 -600l317 600l-317 571z"/>
<glyph unicode="" horiz-adv-x="993" d="M0 0v993h993v-993h-993z"/>
</font>
</defs>
</svg>
