<?xml version="1.0" encoding="UTF-8" standalone="no"?>
<!DOCTYPE svg PUBLIC "-//W3C//DTD SVG 1.1//EN" "http://www.w3.org/Graphics/SVG/1.1/DTD/svg11.dtd">
<svg xmlns="http://www.w3.org/2000/svg">
<metadata/>
<defs>
<font id="intro_regular" horiz-adv-x="1458">
<font-face units-per-em="2048" ascent="1536" descent="-512"/>
<missing-glyph horiz-adv-x="563"/>
<glyph horiz-adv-x="2048"/>
<glyph horiz-adv-x="2048"/>
<glyph unicode="" horiz-adv-x="2048"/>
<glyph unicode=" " horiz-adv-x="563"/>
<glyph unicode="	" horiz-adv-x="563"/>
<glyph unicode=" " horiz-adv-x="563"/>
<glyph unicode="!" horiz-adv-x="722" d="M158 1464h409l-22 -1026h-357zM166 197q0 85 57 136.5t144 51.5q86 0 143 -51.5t57 -136.5q0 -83 -57 -135t-143 -52t-143.5 52t-57.5 135z"/>
<glyph unicode="&amp;" horiz-adv-x="1331" d="M97 485q8 92 56.5 179t131.5 147q-51 56 -75.5 126.5t-22 142t34.5 140t87.5 121t144 85t197.5 32.5q129 0 229 -40.5t160 -129.5t54 -215h-324q0 82 -119 82q-45 0 -76 -22.5t-38.5 -54.5t0 -63.5t39.5 -54t79 -22.5h62v-299h-66q-59 0 -102 -26t-62.5 -65.5 t-19.5 -85.5t19.5 -85.5t62.5 -65.5t102 -26q81 0 134 49.5t53 132.5v477h446v-317h-127v-160q0 -236 -135 -364t-371 -128q-141 0 -253.5 45t-178.5 117t-98 164t-24 184z"/>
<glyph unicode="," horiz-adv-x="581" d="M78 160q0 85 58 137.5t143 52.5q88 0 146 -52.5t58 -137.5q0 -25 -14 -76l-90 -266h-207l51 162q-65 15 -105 63t-40 117z"/>
<glyph unicode="." horiz-adv-x="581" d="M82 174q0 85 58.5 138t146.5 53q85 0 142.5 -53t57.5 -138q0 -83 -57.5 -134.5t-142.5 -51.5q-88 0 -146.5 51.5t-58.5 134.5z"/>
<glyph unicode="0" horiz-adv-x="1392" d="M158 465v502q0 152 73.5 265.5t193.5 170.5t267 57q150 0 271 -57t194.5 -170.5t73.5 -265.5v-502q0 -152 -73.5 -266t-194.5 -171t-271 -57q-147 0 -267 57t-193.5 171t-73.5 266zM506 473q0 -85 52 -130.5t134 -45.5q85 0 139 45.5t54 130.5v488q0 82 -54 127t-139 45 q-81 0 -133.5 -45t-52.5 -127v-488z"/>
<glyph unicode="1" horiz-adv-x="876" d="M45 0v299h213v838h-195v297h551v-1135h217v-299h-786z"/>
<glyph unicode="2" horiz-adv-x="1122" d="M51 0v55l539 789q29 38 47 85t21 92.5t-27 76t-94 30.5q-65 0 -103.5 -33.5t-38.5 -105.5h-311q-1 113 34.5 202t98.5 145.5t146 87t180 32.5q120 3 217.5 -39.5t155.5 -117.5t83 -168t5 -199t-82 -203l-289 -401h426v-328h-1008z"/>
<glyph unicode="3" horiz-adv-x="1167" d="M84 438h322q1 -69 43.5 -105t117.5 -36q73 0 114.5 48.5t43.5 123.5q-1 59 -24 100t-60 59t-84.5 28t-97 8t-97.5 -2v49l191 397h-414v326h912v-54l-265 -483q82 -21 141 -64t91 -102t46.5 -123t14.5 -137q1 -74 -19 -145.5t-62 -136t-101 -113t-142 -77t-180 -28.5 q-145 0 -256 62q-106 60 -170.5 166t-64.5 239z"/>
<glyph unicode="4" horiz-adv-x="1179" d="M43 272v160l571 1002h394v-863h122v-299h-122v-272h-340v272h-625zM453 571h229v215l27 220h-4z"/>
<glyph unicode="5" horiz-adv-x="1183" d="M109 438h315q1 -69 44 -106t116 -37q76 0 119.5 45t44.5 131q-5 118 -130 154q-65 19 -153.5 22t-204 -4.5t-127.5 -7.5v799h893v-312h-590v-178q83 8 164.5 1.5t154.5 -20.5t135.5 -50t108 -87.5t71.5 -132t26 -184.5q1 -94 -32 -182t-94 -159.5t-159.5 -115 t-218.5 -43.5q-207 0 -340.5 126t-142.5 341z"/>
<glyph unicode="6" horiz-adv-x="1263" d="M82 471q0 165 76 281l413 694h408l-303 -516q227 17 365.5 -109.5t138.5 -349.5q0 -123 -42.5 -218.5t-117 -155t-173 -90t-214.5 -30.5q-118 0 -217 30.5t-174 90t-117.5 155t-42.5 218.5zM449 471q0 -79 51 -130.5t133 -51.5q84 0 131 50.5t47 131.5q0 77 -46 128.5 t-132 51.5q-88 0 -136 -51.5t-48 -128.5z"/>
<glyph unicode="7" horiz-adv-x="1099" d="M43 1106v328h1047v-56l-580 -1378h-377l473 1106h-563z"/>
<glyph unicode="8" horiz-adv-x="1239" d="M69.5 489.5q8.5 92.5 57 180t131.5 147.5q-51 56 -76 126.5t-22.5 141t34.5 138t87.5 119.5t143.5 84t196 32t196 -32t143 -84.5t86.5 -120.5t34 -139t-22 -141.5t-75.5 -125.5q83 -61 130.5 -148.5t55.5 -179.5t-23.5 -184.5t-97 -165t-176.5 -117.5t-251 -45 q-141 0 -253 45.5t-177.5 118t-97.5 165.5t-23.5 185.5zM440.5 425q9.5 -38 30 -69.5t60 -51t90.5 -19.5t91 19.5t61 51t30.5 69.5t0 76t-30.5 69.5t-61 51t-91 19.5t-90.5 -19.5t-60 -51t-30 -69.5t0 -76zM490 1030.5q7 -24.5 22 -45t43.5 -33t65.5 -12.5q50 0 84.5 23.5 t42.5 57t0 67.5t-42.5 57.5t-84.5 23.5q-37 0 -65.5 -12.5t-43.5 -33t-22 -44.5t0 -48.5z"/>
<glyph unicode="9" horiz-adv-x="1247" d="M72 963q0 124 40.5 219t114 154t171.5 88.5t218 29.5q119 0 218 -29.5t174.5 -88.5t117 -154t41.5 -219q0 -172 -75 -283l-418 -694h-408l305 518q-111 -8 -205.5 24t-158 94.5t-99.5 150.5t-36 190zM436 963q0 -79 49.5 -130t130.5 -51q88 0 134.5 48t46.5 133 q0 77 -49 127.5t-132 50.5q-80 0 -130 -51t-50 -127z"/>
<glyph unicode=":" horiz-adv-x="634" d="M104 174q0 85 58.5 138t146.5 53q85 0 143 -53t58 -138q0 -83 -58 -134.5t-143 -51.5q-88 0 -146.5 51.5t-58.5 134.5zM104 838q0 85 58.5 137.5t146.5 52.5q85 0 143 -52.5t58 -137.5q0 -83 -58 -135t-143 -52q-88 0 -146.5 52t-58.5 135z"/>
<glyph unicode=";" horiz-adv-x="612" d="M90 172q0 85 58 137.5t143 52.5q88 0 146.5 -52.5t58.5 -137.5q0 -22 -15 -76l-90 -266h-207l52 162q-65 15 -105.5 63t-40.5 117zM90 838q0 85 58.5 137.5t146.5 52.5q85 0 143 -52.5t58 -137.5q0 -83 -58 -135t-143 -52q-88 0 -146.5 52t-58.5 135z"/>
<glyph unicode="?" horiz-adv-x="1126" d="M98 1020q-2 113 33 202.5t99 145t147 85.5t180 32q109 3 200.5 -30t152.5 -92t94.5 -138.5t33.5 -169.5q0 -71 -22 -134t-55 -106t-71 -89.5t-70 -85.5t-51.5 -92t-16.5 -110h-363q-7 66 4.5 123t36.5 99.5t56.5 80t65 72t62.5 68.5t49 77t23 89q3 53 -40 83.5t-99 30.5 q-59 -2 -99 -37t-40 -104h-310zM369 197q0 84 57.5 136t142.5 52q87 0 145 -52t58 -136q0 -83 -58.5 -135t-144.5 -52q-85 0 -142.5 52t-57.5 135z"/>
<glyph unicode="@" horiz-adv-x="1765" d="M74 635q0 164 64 314t172 258.5t257.5 172.5t313.5 64t314 -64t258.5 -172.5t172.5 -258.5t64 -314q0 -151 -51 -293.5t-154 -232.5q-94 4 -185 50.5t-158 118t-107 165t-38 186.5q1 49 -34 86t-82 37q-48 0 -84 -36t-35 -85q0 -45 36 -81t83 -36q45 0 86 41 q9 -100 60.5 -192.5t133.5 -163.5q-129 -80 -280 -80q-138 0 -257.5 68.5t-190.5 188t-71 259.5t69.5 259.5t189 189t260.5 69.5t261 -69.5t189.5 -189t69.5 -259.5v-297l6 -27q96 150 96 324q0 126 -49.5 241t-133 198.5t-198.5 133t-241 49.5q-125 0 -240 -49.5 t-198.5 -133t-133 -198.5t-49.5 -241q0 -169 84 -312t227 -226t310 -83q185 0 344 105q119 -66 207 -74q-117 -125 -241 -173t-310 -48q-134 0 -258 41t-223 115.5t-172.5 174.5t-113.5 223.5t-40 256.5z"/>
<glyph unicode="A" d="M2 0v53l645 1399h158l647 -1399v-53h-358l-84 180h-566l-84 -180h-358zM563 494h328l-166 376z"/>
<glyph unicode="B" horiz-adv-x="1404" d="M182 0v1434h613q186 0 316 -127.5t130 -313.5q0 -66 -31 -136t-82 -112q172 -87 172 -292q-2 -197 -118.5 -325t-327.5 -128h-672zM537 326h292q42 0 70.5 25t34.5 61q3 17 3 34q1 19 -3 37q-6 36 -35.5 61t-71.5 25h-290v-243zM537 874h231q41 0 69.5 24t34.5 58 q3 16 4 33q0 18 -4 35q-7 34 -35.5 58t-70.5 24h-229v-232z"/>
<glyph unicode="C" horiz-adv-x="1609" d="M96 717q1 142 42.5 263t112 206t164.5 145.5t199.5 89.5t216.5 29q91 0 179 -19.5t171 -62.5t148.5 -105.5t112.5 -154.5t63 -203h-360q-74 211 -314 211q-161 0 -258.5 -110t-97.5 -289q0 -106 43 -196t125.5 -145.5t187.5 -56.5q120 0 205.5 59.5t114.5 172.5h360 q-15 -118 -61.5 -214t-112.5 -160.5t-150 -108t-173 -63t-183 -19.5h-7q-108 0 -210 28q-106 29 -199.5 89t-164 145t-112 206t-42.5 263z"/>
<glyph unicode="D" horiz-adv-x="1519" d="M182 0v1434h541q136 -1 251.5 -41t197 -109t139.5 -160.5t85 -194.5t27 -212t-27 -212t-85 -194.5t-139.5 -160.5t-197 -109t-251.5 -41h-541zM549 334h174q83 0 149.5 33t108 87t63.5 122.5t22 140.5t-22 140.5t-63.5 122.5t-108 87t-149.5 33h-174v-766z"/>
<glyph unicode="E" horiz-adv-x="1228" d="M182 0v1434h895v-328h-530v-203h487v-325h-487v-252h549v-326h-914z"/>
<glyph unicode="F" horiz-adv-x="1175" d="M182 0v1434h893v-328h-520v-313h461v-328h-461v-465h-373z"/>
<glyph unicode="G" horiz-adv-x="1617" d="M94 717q1 142 42.5 263.5t112 207t164.5 146t199.5 89.5t216.5 29q89 -1 173 -19.5t164 -58t144 -98t111.5 -143.5t67.5 -189h-361q-44 91 -116 131.5t-183 40.5q-167 0 -261.5 -113.5t-94.5 -285.5q0 -179 97 -286t259 -107q116 0 188 38.5t120 137.5h-306v317h678 q5 -52 5 -108q0 -50 -4 -103q-8 -114 -42 -209q-37 -108 -105 -190t-154.5 -129.5t-181.5 -70.5t-198 -23q-111 0 -216.5 28.5t-199.5 89t-164.5 145.5t-112 206.5t-42.5 263.5z"/>
<glyph unicode="H" horiz-adv-x="1560" d="M184 0v1434h375v-521h442v521h375v-1434h-375v575h-442v-575h-375z"/>
<glyph unicode="I" horiz-adv-x="847" d="M63 0v322h183v792h-168v320h698v-320h-168v-792h183v-322h-728z"/>
<glyph unicode="J" horiz-adv-x="1355" d="M94 477v187h346v-181q0 -82 54 -127t137 -45q82 0 130 44t48 128v625h-209v326h584v-957q0 -114 -45 -208.5t-121 -156t-176 -95t-211 -33.5q-149 0 -270 57t-194 170.5t-73 265.5z"/>
<glyph unicode="K" horiz-adv-x="1449" d="M184 0v1434h373v-543h27q101 0 170 31t104 70t52.5 119.5t19.5 131t2 153.5v13.5v11.5v13h377v-23q0 -63 -0.5 -95t-2.5 -90t-7 -90.5t-14.5 -83.5t-23 -84t-34.5 -76t-48 -75t-64.5 -66t-82.5 -63l389 -631v-57h-407l-316 555q-49 -8 -141 -8v-547h-373z"/>
<glyph unicode="L" horiz-adv-x="1138" d="M180 0v1434h369v-1104h520v-330h-889z"/>
<glyph unicode="M" horiz-adv-x="1761" d="M180 0v1438h135l562 -623l571 623h131v-1438h-375v639l-305 -320h-41l-303 320v-639h-375z"/>
<glyph unicode="N" horiz-adv-x="1597" d="M182 0v1440h133l725 -709v703h375v-1436h-131l-723 707v-705h-379z"/>
<glyph unicode="O" horiz-adv-x="1658" d="M94 715q0 179 63 324t166.5 234t236 137.5t270 48.5t270 -48.5t236 -137.5t166.5 -234t63 -324q0 -180 -63 -325t-166.5 -234.5t-236 -138t-270 -48.5t-270 48.5t-236 138t-166.5 234.5t-63 325zM471 715q0 -94 31 -170t81.5 -123t115 -72t132 -25t132 25t115 72 t81.5 123t31 170q0 93 -31 168.5t-81.5 122t-115 71.5t-132 25t-132 -25t-115 -71.5t-81.5 -122t-31 -168.5z"/>
<glyph unicode="P" horiz-adv-x="1421" d="M182 0v1434h631q111 0 203.5 -37t152.5 -98.5t101 -141.5q42 -81 51 -169q4 -44 4 -88t-4 -88q-9 -88 -50.5 -168.5t-101.5 -142t-152.5 -98t-203.5 -36.5h-264v-367h-367zM549 696h262q41 0 74.5 22.5t50.5 58.5q18 35 26 79q5 23 5 47q1 21 -3 41q-8 44 -25 80 t-50.5 59t-77.5 23q-38 1 -82.5 1t-98 -0.5t-81.5 -0.5v-410z"/>
<glyph unicode="Q" horiz-adv-x="1667" d="M96 715q0 179 63 324t166.5 234t236 137.5t270 48.5t270 -48.5t236 -137.5t166.5 -234t63 -324q0 -244 -115 -424l147 -244v-47h-372l-35 66q-81 -43 -172 -65.5t-182 -24.5h-13l-171 20q-91 20 -173 59.5t-152.5 103t-122 143.5t-81 186t-29.5 227zM473 715 q0 -94 31 -170t81 -123t114.5 -72t132 -25t132 25t114.5 72t81 123t31 170q0 93 -31 168.5t-81 122t-114.5 71.5t-132 25t-132 -25t-114.5 -71.5t-81 -122t-31 -168.5z"/>
<glyph unicode="R" horiz-adv-x="1431" d="M180 0v1434h629q102 0 189 -30t147 -80.5t103 -118.5q42 -69 60 -143q16 -65 16 -134v-20q-2 -80 -26.5 -152.5t-72 -137.5t-113.5 -110l281 -455v-53h-410l-246 422h-190v-422h-367zM547 748h262q41 0 73.5 19.5t50 51t25.5 69.5q5 20 5 40q1 18 -3 36q-8 38 -25 70 t-50 52t-76 20q-38 1 -82 1t-97.5 -0.5t-82.5 -0.5v-358z"/>
<glyph unicode="S" horiz-adv-x="1327" d="M82 438h354q0 -52 46 -88q46 -34 112 -44q39 -6 79 -6q27 0 53 2q66 6 112.5 39t46.5 81q0 36 -20 61t-58.5 39t-81 21t-102.5 10q-122 9 -213 35t-162 76.5t-108 132.5t-38 196v8q0 122 57 219q59 100 156 151.5t215 75.5q59 12 117.5 12t117.5 -12q118 -24 215 -75 q98 -52 158 -152q59 -97 58 -219v-8h-348q0 54 -40 89q-38 36 -96 44q-26 3 -53 3l-63 -5q-58 -9 -100 -43.5t-45 -83.5q-2 -32 9 -55.5t29.5 -38.5t51 -25.5t63 -15.5t74.5 -10q57 -6 95 -11t90.5 -14.5t88 -20.5t78 -29t71 -40t57.5 -53t45.5 -68.5t27 -87t10.5 -108.5 q0 -124 -64.5 -221.5t-166.5 -148.5q-104 -50 -228 -74q-61 -12 -121 -12q-63 0 -127 12q-124 24 -226 76t-165 154q-61 98 -61 224v8z"/>
<glyph unicode="T" horiz-adv-x="1150" d="M41 1106v328h1065v-328h-350v-1106h-363v1106h-352z"/>
<glyph unicode="U" horiz-adv-x="1478" d="M168 477v957h350v-951q0 -82 66 -128t153 -46t152 46t65 128v951h351v-957q0 -115 -47 -210t-126.5 -157t-181.5 -96t-213 -34t-213 34t-181.5 96t-127 157.5t-47.5 209.5z"/>
<glyph unicode="V" horiz-adv-x="1437" d="M29 1378v56h352l336 -811h10l328 811h352v-56l-608 -1394h-156z"/>
<glyph unicode="W" horiz-adv-x="1943" d="M31 1378v56h370l185 -541l63 -244h6l240 762h156l243 -762h6l64 244l182 541h365v-56l-498 -1392h-211l-229 690h-6l-230 -690h-202z"/>
<glyph unicode="X" horiz-adv-x="1378" d="M25 0v55l462 705l-413 618v56h375l233 -373h10l240 373h368v-56l-413 -618l465 -705v-55h-385l-273 451h-12l-274 -451h-383z"/>
<glyph unicode="Y" horiz-adv-x="1361" d="M18 1378v56h396l260 -478h14l260 478h398v-56l-484 -776v-602h-362v602z"/>
<glyph unicode="Z" horiz-adv-x="1251" d="M47 0v55l586 1051h-533v328h1086v-56l-588 -1050h594v-328h-1145z"/>
<glyph unicode="`" horiz-adv-x="714" d="M125 1399v31l311 104l156 -342v-33h-256z"/>
<glyph unicode="a" d="M2 0v53l645 1399h158l647 -1399v-53h-358l-84 180h-566l-84 -180h-358zM565 496h324l-164 376z"/>
<glyph unicode="b" horiz-adv-x="1404" d="M182 0v1434h613q186 0 316 -127.5t130 -313.5q0 -66 -31 -136t-82 -112q172 -87 172 -292q-2 -197 -118.5 -325t-327.5 -128h-672zM537 326h292q42 0 70.5 25t34.5 61q3 17 3 34q1 19 -3 37q-6 36 -35.5 61t-71.5 25h-290v-243zM537 870h231q41 0 70 24q28 26 34 60 q3 17 4 33q0 17 -4 35q-7 34 -35.5 59t-70.5 25h-229v-236z"/>
<glyph unicode="c" horiz-adv-x="1609" d="M96 717q1 142 42.5 263t112 206t164.5 145.5t199.5 89.5t216.5 29q91 0 179 -19.5t171 -62.5t148.5 -105.5t112.5 -154.5t63 -203h-360q-74 211 -314 211q-161 0 -258.5 -110t-97.5 -289q0 -106 43 -196t125.5 -145.5t187.5 -56.5q120 0 205.5 59.5t114.5 172.5h360 q-15 -118 -61.5 -214t-112.5 -160.5t-150 -108t-173 -63t-183 -19.5h-7q-108 0 -210 28q-106 29 -199.5 89t-164 145t-112 206t-42.5 263z"/>
<glyph unicode="d" horiz-adv-x="1519" d="M182 0v1434h541q136 -1 251.5 -41t197 -109t139.5 -160.5t85 -194.5t27 -212t-27 -212t-85 -194.5t-139.5 -160.5t-197 -109t-251.5 -41h-541zM549 334h174q83 0 149.5 33t108 87t63.5 122.5t22 140.5t-22 140.5t-63.5 122.5t-108 87t-149.5 33h-174v-766z"/>
<glyph unicode="e" horiz-adv-x="1228" d="M182 0v1434h895v-328h-530v-203h487v-325h-487v-252h549v-326h-914z"/>
<glyph unicode="f" horiz-adv-x="1175" d="M182 0v1434h893v-328h-520v-313h461v-328h-461v-465h-373z"/>
<glyph unicode="g" horiz-adv-x="1617" d="M94 717q1 142 42.5 263.5t112 207t164.5 146t199.5 89.5t216.5 29q89 -1 173 -19.5t164 -58t144 -98t111.5 -143.5t67.5 -189h-361q-44 91 -116 131.5t-183 40.5q-167 0 -261.5 -113.5t-94.5 -285.5q0 -179 97 -286t259 -107q116 0 188 38.5t120 137.5h-306v317h678 q5 -52 5 -108q0 -50 -4 -103q-8 -114 -42 -209q-37 -108 -105 -190t-154.5 -129.5t-181.5 -70.5t-198 -23q-111 0 -216.5 28.5t-199.5 89t-164.5 145.5t-112 206.5t-42.5 263.5z"/>
<glyph unicode="h" horiz-adv-x="1560" d="M184 0v1434h375v-521h442v521h375v-1434h-375v575h-442v-575h-375z"/>
<glyph unicode="i" horiz-adv-x="847" d="M63 0v322h183v792h-168v320h698v-320h-168v-792h183v-322h-728z"/>
<glyph unicode="j" horiz-adv-x="1355" d="M94 477v187h346v-181q0 -82 54 -127t137 -45q82 0 130 44t48 128v625h-209v326h584v-957q0 -114 -45 -208.5t-121 -156t-176 -95t-211 -33.5q-149 0 -270 57t-194 170.5t-73 265.5z"/>
<glyph unicode="k" horiz-adv-x="1449" d="M184 0v1434h373v-543h27q101 0 170 31t104 70t52.5 119.5t19.5 131t2 153.5v13.5v11.5v13h377v-23q0 -63 -0.5 -95t-2.5 -90t-7 -90.5t-14.5 -83.5t-23 -84t-34.5 -76t-48 -75t-64.5 -66t-82.5 -63l389 -631v-57h-407l-316 555q-49 -8 -141 -8v-547h-373z"/>
<glyph unicode="l" horiz-adv-x="1138" d="M180 0v1434h369v-1104h520v-330h-889z"/>
<glyph unicode="m" horiz-adv-x="1761" d="M180 0v1438h135l562 -623l571 623h131v-1438h-375v639l-305 -320h-41l-303 320v-639h-375z"/>
<glyph unicode="n" horiz-adv-x="1597" d="M182 0v1440h133l725 -709v703h375v-1436h-131l-723 707v-705h-379z"/>
<glyph unicode="o" horiz-adv-x="1658" d="M94 715q0 179 63 324t166.5 234t236 137.5t270 48.5t270 -48.5t236 -137.5t166.5 -234t63 -324q0 -180 -63 -325t-166.5 -234.5t-236 -138t-270 -48.5t-270 48.5t-236 138t-166.5 234.5t-63 325zM471 715q0 -94 31 -170t81.5 -123t115 -72t132 -25t132 25t115 72 t81.5 123t31 170q0 93 -31 168.5t-81.5 122t-115 71.5t-132 25t-132 -25t-115 -71.5t-81.5 -122t-31 -168.5z"/>
<glyph unicode="p" horiz-adv-x="1421" d="M182 0v1434h631q111 0 203.5 -37t152.5 -98.5t101.5 -141.5t50.5 -169q5 -44 5 -88t-5 -88q-9 -89 -50.5 -169t-101.5 -141.5t-152.5 -98t-203.5 -36.5h-264v-367h-367zM549 696h262q41 0 74.5 22.5t51 58.5t25.5 79q5 24 5 47q0 20 -3 41q-8 44 -25 80t-50.5 59 t-77.5 23q-38 1 -82.5 1t-98 -0.5t-81.5 -0.5v-410z"/>
<glyph unicode="q" horiz-adv-x="1667" d="M96 715q0 179 63 324t166.5 234t236 137.5t270 48.5t270 -48.5t236 -137.5t166.5 -234t63 -324q0 -244 -115 -424l147 -244v-47h-372l-35 66q-81 -43 -172 -65.5t-182 -24.5h-13l-171 20q-91 20 -173 59.5t-152.5 103t-122 143.5t-81 186t-29.5 227zM473 715 q0 -94 31 -170t81 -123t114.5 -72t132 -25t132 25t114.5 72t81 123t31 170q0 93 -31 168.5t-81 122t-114.5 71.5t-132 25t-132 -25t-114.5 -71.5t-81 -122t-31 -168.5z"/>
<glyph unicode="r" horiz-adv-x="1431" d="M180 0v1434h629q102 0 189 -30t147 -80.5t103 -118.5q42 -69 60 -143q16 -65 16 -134v-20q-2 -80 -26.5 -152.5t-72 -137.5t-113.5 -110l281 -455v-53h-410l-246 422h-190v-422h-367zM547 752h262q41 0 73.5 19.5t49.5 50.5q18 30 26 68q5 20 5 40q1 18 -3 36 q-8 38 -25 69t-50 51t-76 20q-38 1 -82 1t-97.5 -0.5t-82.5 -0.5v-354z"/>
<glyph unicode="s" horiz-adv-x="1327" d="M82 438h354q0 -52 46 -87t112 -43q35 -5 70 -5q30 -1 62 3q66 8 112.5 41t46.5 81q0 36 -19.5 60t-59.5 37t-80.5 19t-102.5 9q-122 9 -213 35t-162 76.5t-108 132.5t-38 196v8q0 122 57 219q59 100 156 151.5t215 75.5q59 12 117.5 12t117.5 -12q118 -24 215 -75 q98 -52 158 -152q59 -97 58 -219v-8h-348q0 54 -40 89q-38 36 -96 44q-26 3 -53 3l-63 -5q-58 -9 -100 -43.5t-45 -83.5q-2 -32 9 -55.5t29.5 -38.5t51 -25.5t63 -15.5t74.5 -10q59 -6 95 -11t90.5 -14t88 -19.5t78 -28t71.5 -38.5t56.5 -52t46 -68.5t27 -86.5t10.5 -108 q0 -124 -64.5 -222t-166.5 -149q-104 -51 -228 -75q-63 -12 -125 -13q-61 0 -123 12q-124 24 -226 75.5t-165 152.5q-61 98 -61 223v8z"/>
<glyph unicode="t" horiz-adv-x="1150" d="M41 1106v328h1065v-328h-350v-1106h-363v1106h-352z"/>
<glyph unicode="u" horiz-adv-x="1478" d="M168 477v957h350v-951q0 -82 66 -128t153 -46t152 46t65 128v951h355v-957q0 -114 -47.5 -209.5t-128 -157.5t-183 -96t-213.5 -34t-213 34t-181.5 96t-127 157.5t-47.5 209.5z"/>
<glyph unicode="v" horiz-adv-x="1437" d="M29 1378v56h352l336 -813h10l328 813h352v-56l-608 -1394h-156z"/>
<glyph unicode="w" horiz-adv-x="1943" d="M31 1378v56h370l185 -541l63 -244h6l240 762h156l243 -762h6l64 244l182 541h365v-56l-498 -1392h-211l-229 690h-6l-230 -690h-202z"/>
<glyph unicode="x" horiz-adv-x="1378" d="M25 0v55l462 705l-413 618v56h381l227 -373h10l230 373h378v-56l-413 -618l465 -705v-55h-396l-262 451h-12l-262 -451h-395z"/>
<glyph unicode="y" horiz-adv-x="1361" d="M18 1378v56h396l260 -478h14l260 478h398v-56l-484 -776v-602h-362v602z"/>
<glyph unicode="z" horiz-adv-x="1251" d="M47 0v55l586 1051h-533v328h1086v-56l-588 -1050h594v-328h-1145z"/>
<glyph unicode="¨" horiz-adv-x="1232" d="M133 1348q0 86 58 137t145 51t146 -51.5t59 -136.5q0 -83 -59 -135t-146 -52q-86 0 -144.5 52t-58.5 135zM676 1348q0 86 58 137t145 51q88 0 145 -51t57 -137q0 -84 -57 -135.5t-145 -51.5q-86 0 -144.5 52t-58.5 135z"/>
<glyph unicode="´" horiz-adv-x="688" d="M119 1159v33l155 342l312 -104v-31l-211 -240h-256z"/>
<glyph unicode="¸" horiz-adv-x="710" d="M119 -449l16 191q22 -18 59.5 -25t70 3t40.5 36q11 38 -21.5 55t-76.5 17l53 203l229 -8l-30 -136q63 -10 100 -49t40.5 -90t-15.5 -106q-27 -65 -83.5 -103t-123 -45t-135.5 8t-123 49z"/>
<glyph unicode="ˆ" horiz-adv-x="985" d="M84 1198v33l217 293h373l219 -293v-33h-272l-134 156l-125 -156h-278z"/>
<glyph unicode="˚" horiz-adv-x="745" d="M86 1335q0 112 78.5 180t195.5 68q115 0 193 -68.5t78 -179.5q0 -113 -78 -182.5t-193 -69.5q-117 0 -195.5 69.5t-78.5 182.5zM266 1335q0 -39 26.5 -61.5t67.5 -22.5q39 0 66 23t27 61t-27 61t-66 23q-41 0 -67.5 -22.5t-26.5 -61.5z"/>
<glyph unicode="˜" horiz-adv-x="980" d="M78 1237q55 165 163.5 223.5t264.5 -2.5q3 -1 19.5 -8t22.5 -9l22.5 -7.5t24 -7t22.5 -3.5t23 0l20 5t19 10.5t14 18.5t12 26q18 -8 83.5 -35.5t100.5 -44.5q-33 -151 -146 -220t-251 -14q-4 2 -34.5 15.5t-45.5 19t-44.5 12t-47.5 3.5t-37 -16.5t-29 -39.5 q-96 38 -176 74z"/>
<glyph unicode="Ё" horiz-adv-x="1228" d="M182 0v1434h895v-328h-530v-203h487v-325h-487v-252h549v-326h-914zM190 1696q0 81 54.5 129.5t136.5 48.5t137 -48.5t55 -129.5q0 -77 -55.5 -125.5t-136.5 -48.5t-136 48.5t-55 125.5zM700 1696q0 81 54.5 129.5t136.5 48.5q83 0 136.5 -48t53.5 -130 q0 -77 -53.5 -125.5t-136.5 -48.5q-81 0 -136 48.5t-55 125.5z"/>
<glyph unicode="Ѓ" horiz-adv-x="1175" d="M182 0v1434h893v-328h-520v-1106h-373zM494 1530v33l155 342l312 -105v-31l-211 -239h-256z"/>
<glyph unicode="Є" horiz-adv-x="1585" d="M92 717q1 142 42.5 263t112 206t164.5 145.5t199.5 89.5t216.5 29q91 0 179 -19.5t171 -62.5t148.5 -105.5t112.5 -154.5t63 -203h-360q-74 211 -314 211q-124 0 -215.5 -66.5t-126.5 -181.5h471v-309h-464q39 -107 127.5 -173t207.5 -67q120 0 205.5 59.5t114.5 172.5 h360q-15 -118 -61.5 -214t-112.5 -160.5t-150 -108t-173 -63t-183 -19.5q-111 -1 -216.5 28t-199.5 89t-164.5 145t-112 206t-42.5 263z"/>
<glyph unicode="Ѕ" horiz-adv-x="1327" d="M82 438h354q0 -52 46 -87t112 -43.5t132.5 -1t112.5 40.5t46 81q0 36 -19.5 60t-59.5 37t-80.5 19t-102.5 9q-122 9 -213 35t-162 76.5t-108 132.5t-38 196q-2 127 57 227t156 151.5t214.5 75.5t235.5 0t215 -75.5t157.5 -151.5t58.5 -227h-348q0 54 -39.5 89.5t-97 43 t-115 -1.5t-100 -43.5t-45.5 -83.5q-2 -32 9 -55.5t29.5 -38.5t51 -25.5t63 -15.5t74.5 -10q59 -6 95 -11t90.5 -14t88 -19.5t78 -28t71.5 -38.5t56.5 -52t46 -68.5t27 -86.5t10.5 -108q0 -124 -64.5 -222t-167 -149t-227 -75.5t-248 -0.5t-226 75.5t-165.5 152.5t-61 231z "/>
<glyph unicode="І" horiz-adv-x="847" d="M63 0v322h183v792h-168v320h698v-320h-168v-792h183v-322h-728z"/>
<glyph unicode="Ї" horiz-adv-x="847" d="M-45 1722q0 86 58 137.5t145 51.5t145.5 -51.5t58.5 -137.5q0 -83 -58.5 -134.5t-145.5 -51.5t-145 51.5t-58 134.5zM63 0v322h183v792h-168v320h698v-320h-168v-792h183v-322h-728zM498 1722q0 86 57.5 137.5t144.5 51.5q88 0 145.5 -51.5t57.5 -137.5 q0 -83 -57.5 -134.5t-145.5 -51.5q-86 0 -144 51.5t-58 134.5z"/>
<glyph unicode="Ј" horiz-adv-x="1355" d="M94 477v187h346v-181q0 -82 54 -127t137 -45q82 0 130 44t48 128v625h-209v326h584v-957q0 -114 -45 -208.5t-121 -156t-176 -95t-211 -33.5q-149 0 -270 57t-194 170.5t-73 265.5z"/>
<glyph unicode="Ќ" horiz-adv-x="1449" d="M184 0v1434h373v-543h27q101 0 170 31t104 70t52.5 119.5t19.5 131t2 153.5v13.5v11.5v13h377v-23q0 -63 -0.5 -95t-2.5 -90t-7 -90.5t-14.5 -83.5t-23 -84t-34.5 -76t-48 -75t-64.5 -66t-82.5 -63l389 -631v-57h-407l-316 555q-49 -8 -141 -8v-547h-373zM580 1536v33 l155 342l312 -105v-30l-211 -240h-256z"/>
<glyph unicode="Ў" horiz-adv-x="1361" d="M12 1378v56h410l270 -529h10l246 529h398v-56l-680 -1378h-396v39l226 463zM319 1862q141 16 211 20q9 -113 142 -113q67 0 104.5 25.5t46.5 87.5q70 -4 211 -20q-6 -172 -97 -261.5t-261 -89.5q-167 0 -260 90t-97 261z"/>
<glyph unicode="Џ" horiz-adv-x="1560" d="M184 0v1434h375v-1096h442v1096h375v-1434h-407v-209h-375v209h-410z"/>
<glyph unicode="А" d="M2 0v53l645 1399h158l647 -1399v-53h-358l-84 180h-566l-84 -180h-358zM563 494h328l-166 376z"/>
<glyph unicode="Б" horiz-adv-x="1421" d="M182 0v1434h1030v-328h-663v-174h264q111 0 203.5 -32t152.5 -85.5t101.5 -123.5t50.5 -147t0 -154.5t-50.5 -147t-101.5 -124t-152.5 -86.5t-203.5 -32h-631zM549 328h262q48 0 84 20.5t51.5 52t15.5 67.5t-16 67.5t-51.5 52t-83.5 20.5h-262v-280z"/>
<glyph unicode="В" horiz-adv-x="1404" d="M182 0v1434h613q186 0 316 -127.5t130 -313.5q0 -66 -31 -136t-82 -112q172 -87 172 -292q-2 -197 -118.5 -325t-327.5 -128h-672zM537 326h292q42 0 70.5 25t34.5 60.5t-0.5 71.5t-35.5 61t-71 25h-290v-243zM537 874h231q41 0 69.5 24t35 58t-0.5 68t-35.5 58t-70.5 24 h-229v-232z"/>
<glyph unicode="Г" horiz-adv-x="1148" d="M182 0v1434h893v-328h-520v-1106h-373z"/>
<glyph unicode="Д" d="M4 -162v479h146l491 1135h158l508 -1135h149v-479h-301v158h-848v-158h-303zM520 322h406l-207 518z"/>
<glyph unicode="Е" horiz-adv-x="1228" d="M182 0v1434h895v-328h-530v-203h487v-325h-487v-252h549v-326h-914z"/>
<glyph unicode="Ж" horiz-adv-x="2011" d="M20 0v57l386 631q-67 43 -116 92.5t-78 111.5t-46.5 112t-24.5 131.5t-8.5 128.5t-1.5 141v7.5v6.5v8v7h375v-40q0 -70 0.5 -105.5t6 -96.5t16.5 -94t33.5 -76.5t55 -66t82.5 -40.5t115 -22v541h373v-541q46 3 84.5 12t67.5 23.5t52.5 34t39 43.5t28 52t19 59t11 64 t5.5 68t2 71.5t0 73.5v14v12.5v13.5h375q0 -224 -11 -312q-28 -219 -157 -348q-47 -47 -107 -86l385 -631v-57h-405l-313 555q-54 -8 -76 -8v-547h-373v547q-22 0 -76 8l-313 -555h-406z"/>
<glyph unicode="З" horiz-adv-x="1224" d="M80 467h321q0 -84 50.5 -134t130.5 -50q51 0 90.5 18t60 46.5t30 63.5t0 69.5t-30 63t-60 46.5t-90.5 18h-101v299h97q37 0 66 14t43.5 36t21.5 48.5t0 53t-21.5 48.5t-42.5 36t-63 14q-60 0 -93.5 -22t-33.5 -62h-326q-4 96 30.5 171.5t98 121.5t146 70t178.5 24 q113 0 205 -35.5t148.5 -94.5t87 -132.5t30.5 -153.5q0 -75 -32.5 -148t-92.5 -118q107 -58 157 -144.5t50 -209.5q0 -199 -143 -325t-410 -126q-236 0 -369 127.5t-133 366.5z"/>
<glyph unicode="И" horiz-adv-x="1601" d="M184 -2v1436h375v-703l725 709h133v-1440h-379v705l-723 -707h-131z"/>
<glyph unicode="Й" horiz-adv-x="1597" d="M195 -2h131l723 707v-705h378v1440h-133l-725 -709v703h-374v-1436zM508 1862q141 16 211 20q9 -113 141 -113q67 0 105 25.5t47 87.5q70 -4 211 -20q-6 -172 -97.5 -261.5t-261.5 -89.5q-167 0 -259.5 90t-96.5 261z"/>
<glyph unicode="К" horiz-adv-x="1449" d="M184 0v1434h373v-543h27q101 0 170 31t104 70t52.5 119.5t19.5 131t2 153.5v13.5v11.5v13h377v-23q0 -63 -0.5 -95t-2.5 -90t-7 -90.5t-14.5 -83.5t-23 -84t-34.5 -76t-48 -75t-64.5 -66t-82.5 -63l389 -631v-57h-407l-316 555q-49 -8 -141 -8v-547h-373z"/>
<glyph unicode="Л" d="M2 0v53l645 1399h158l647 -1399v-53h-358l-369 840l-365 -840h-358z"/>
<glyph unicode="М" horiz-adv-x="1761" d="M180 0v1438h135l562 -623l571 623h131v-1438h-375v639l-305 -320h-41l-303 320v-639h-375z"/>
<glyph unicode="Н" horiz-adv-x="1560" d="M184 0v1434h375v-521h442v521h375v-1434h-375v575h-442v-575h-375z"/>
<glyph unicode="О" horiz-adv-x="1658" d="M94 715q0 179 63 324t166.5 234t236 137.5t270 48.5t270 -48.5t236 -137.5t166.5 -234t63 -324q0 -180 -63 -325t-166.5 -234.5t-236 -138t-270 -48.5t-270 48.5t-236 138t-166.5 234.5t-63 325zM471 715q0 -94 31 -170t81.5 -123t115 -72t132 -25t132 25t115 72 t81.5 123t31 170q0 93 -31 168.5t-81.5 122t-115 71.5t-132 25t-132 -25t-115 -71.5t-81.5 -122t-31 -168.5z"/>
<glyph unicode="П" horiz-adv-x="1560" d="M184 0v1434h1192v-1434h-375v1096h-442v-1096h-375z"/>
<glyph unicode="Р" horiz-adv-x="1421" d="M182 0v1434h631q111 0 203.5 -37t152.5 -98.5t101.5 -141.5t50.5 -168.5t0 -177t-50.5 -168.5t-101.5 -141.5t-152.5 -98t-203.5 -36.5h-264v-367h-367zM549 696h262q41 0 74.5 22.5t51 58.5t26 79.5t1 87.5t-24.5 80t-50.5 59t-77.5 23q-38 1 -82.5 1t-98 -0.5 t-81.5 -0.5v-410z"/>
<glyph unicode="С" horiz-adv-x="1609" d="M96 717q1 142 42.5 263t112 206t164.5 145.5t199.5 89.5t216.5 29q91 0 179 -19.5t171 -62.5t148.5 -105.5t112.5 -154.5t63 -203h-360q-74 211 -314 211q-161 0 -258.5 -110t-97.5 -289q0 -106 43 -196t125.5 -145.5t187.5 -56.5q120 0 205.5 59.5t114.5 172.5h360 q-15 -118 -61.5 -214t-112.5 -160.5t-150 -108t-173 -63t-183 -19.5q-111 -1 -216.5 28t-199.5 89t-164.5 145t-112 206t-42.5 263z"/>
<glyph unicode="Т" horiz-adv-x="1150" d="M41 1106v328h1065v-328h-350v-1106h-363v1106h-352z"/>
<glyph unicode="У" horiz-adv-x="1361" d="M12 1378v56h410l270 -529h10l246 529h398v-56l-680 -1378h-396v39l226 463z"/>
<glyph unicode="Ф" horiz-adv-x="1888" d="M94 719q0 578 674 600v121h352v-121q674 -22 674 -600q0 -130 -35 -232.5t-95.5 -169.5t-148 -112t-184.5 -65.5t-213 -24.5v-121h-348v121q-116 4 -213 24.5t-184.5 65.5t-148 112t-95.5 169.5t-35 232.5zM469 719q0 -250 305 -266v530q-305 -12 -305 -264zM1114 453 q305 16 305 266q0 252 -305 264v-530z"/>
<glyph unicode="Х" horiz-adv-x="1378" d="M25 0v55l462 705l-413 618v56h381l227 -373h10l230 373h378v-56l-413 -618l465 -705v-55h-396l-262 451h-12l-262 -451h-395z"/>
<glyph unicode="Ц" horiz-adv-x="1533" d="M182 0v1434h375v-1096h416v1096h375v-1117h145v-479h-301v162h-1010z"/>
<glyph unicode="Ч" horiz-adv-x="1427" d="M121 1257v177h377v-177q0 -60 2 -100t8.5 -87t19 -77t34.5 -60t54 -47t78.5 -27.5t106.5 -10.5h71v586h373v-1434h-373v500h-73q-186 0 -316 46.5t-210 143.5t-116 235.5t-36 331.5z"/>
<glyph unicode="Ш" horiz-adv-x="2183" d="M184 0v1434h375v-1096h346v1096h375v-1096h346v1096h375v-1434h-1817z"/>
<glyph unicode="Щ" horiz-adv-x="2183" d="M184 0v1434h375v-1096h346v1096h375v-1096h346v1096h375v-1117h145v-479h-301v162h-1661z"/>
<glyph unicode="Ъ" horiz-adv-x="1476" d="M23 1106v328h581v-428h264q111 0 203.5 -34.5t152.5 -92.5t101.5 -133.5t50.5 -158.5t0 -166.5t-50.5 -159t-101.5 -133.5t-152.5 -93t-203.5 -35h-630v1106h-215zM604 328q28 0 81.5 -0.5t98 -0.5t82.5 1q44 0 77.5 19.5t50.5 50.5t24.5 68t-1 74t-26 67.5t-51 49.5 t-74.5 19h-262v-348z"/>
<glyph unicode="Ы" horiz-adv-x="2146" d="M182 0v1434h367v-428h264q111 0 203.5 -34.5t152.5 -92.5t101.5 -133.5t50.5 -158.5t0 -166.5t-50.5 -159t-101.5 -133.5t-152.5 -93t-203.5 -35h-631zM549 328h262q44 0 77.5 19.5t50.5 50.5t24.5 68t-1 74t-26 67.5t-51 49.5t-74.5 19h-262v-348zM1597 0v1434h367 v-1434h-367z"/>
<glyph unicode="Ь" horiz-adv-x="1421" d="M182 0v1434h367v-428h264q111 0 203.5 -34.5t152.5 -92.5t101.5 -133.5t50.5 -158.5t0 -166.5t-50.5 -159t-101.5 -133.5t-152.5 -93t-203.5 -35h-631zM549 328h262q44 0 77.5 19.5t50.5 50.5t24.5 68t-1 74t-26 67.5t-51 49.5t-74.5 19h-262v-348z"/>
<glyph unicode="Э" horiz-adv-x="1589" d="M84 551h360q29 -113 114.5 -172.5t205.5 -59.5q119 1 208 67t128 173h-465v309h471q-35 115 -126.5 181.5t-215.5 66.5q-239 0 -313 -211h-361q16 111 63 203t112.5 154.5t148.5 105.5t171 62.5t179 19.5q111 0 216.5 -29t199.5 -89.5t164.5 -145.5t112 -206t42.5 -263 q-1 -142 -42.5 -263t-112 -206t-164.5 -145t-199.5 -89t-216.5 -28q-94 0 -183 19.5t-173 63t-150 108t-112.5 160.5t-61.5 214z"/>
<glyph unicode="Ю" horiz-adv-x="2283" d="M182 0v1434h375v-521h186q26 116 83.5 212t134.5 161.5t172 108.5t195.5 58.5t203.5 5t198.5 -45t179.5 -98t145.5 -148t97.5 -201t36 -251.5q0 -138 -37.5 -256t-101.5 -203t-150.5 -148t-185 -95.5t-204.5 -40t-208 12t-197 68t-170.5 120t-129 175t-72.5 227.5h-176 v-575h-375zM1096 715q0 -94 31 -170t81.5 -123t115 -72t132 -25t132 25t115 72t81.5 123t31 170q0 93 -31 168.5t-81.5 122t-115 71.5t-132 25t-132 -25t-115 -71.5t-81.5 -122t-31 -168.5z"/>
<glyph unicode="Я" horiz-adv-x="1435" d="M41 0v53l281 455q-66 45 -113.5 110t-71.5 138t-26.5 152.5t15.5 154t60.5 142.5t102.5 118.5t147 80.5t189 30h628v-1434h-366v422h-191l-245 -422h-410zM474.5 966q-7.5 -38 1 -75.5t26 -68.5t50 -50.5t73.5 -19.5h262v354h-262q-43 0 -76 -20t-50 -51t-24.5 -69z"/>
<glyph unicode="а" d="M2 0v53l645 1399h158l647 -1399v-53h-358l-84 180h-566l-84 -180h-358zM563 494h328l-166 376z"/>
<glyph unicode="б" horiz-adv-x="1421" d="M182 0v1434h1030v-328h-663v-174h264q111 0 203.5 -32t152.5 -85.5t101.5 -123.5t50.5 -147t0 -154.5t-50.5 -147t-101.5 -124t-152.5 -86.5t-203.5 -32h-631zM549 328h262q48 0 84 20.5t51.5 52t15.5 67.5t-16 67.5t-51.5 52t-83.5 20.5h-262v-280z"/>
<glyph unicode="в" horiz-adv-x="1404" d="M182 0v1434h613q186 0 316 -127.5t130 -313.5q0 -66 -31 -136t-82 -112q172 -87 172 -292q-2 -197 -118.5 -325t-327.5 -128h-672zM537 326h292q42 0 70.5 25t34.5 60.5t-0.5 71.5t-35.5 61t-71 25h-290v-243zM537 874h231q41 0 69.5 24t35 58t-0.5 68t-35.5 58t-70.5 24 h-229v-232z"/>
<glyph unicode="г" horiz-adv-x="1148" d="M182 0v1434h893v-328h-520v-1106h-373z"/>
<glyph unicode="д" d="M4 -162v479h146l491 1135h158l508 -1135h149v-479h-301v158h-848v-158h-303zM520 322h406l-207 518z"/>
<glyph unicode="е" horiz-adv-x="1228" d="M182 0v1434h895v-328h-530v-203h487v-325h-487v-252h549v-326h-914z"/>
<glyph unicode="ж" horiz-adv-x="2011" d="M20 0v57l386 631q-67 43 -116 92.5t-78 111.5t-46.5 112t-24.5 131.5t-8.5 128.5t-1.5 141v7.5v6.5v8v7h375v-40q0 -70 0.5 -105.5t6 -96.5t16.5 -94t33.5 -76.5t55 -66t82.5 -40.5t115 -22v541h373v-541q46 3 84.5 12t67.5 23.5t52.5 34t39 43.5t28 52t19 59t11 64 t5.5 68t2 71.5t0 73.5v14v12.5v13.5h375q0 -224 -11 -312q-28 -219 -157 -348q-47 -47 -107 -86l385 -631v-57h-405l-313 555q-54 -8 -76 -8v-547h-373v547q-22 0 -76 8l-313 -555h-406z"/>
<glyph unicode="з" horiz-adv-x="1224" d="M80 467h321q0 -84 50.5 -134t130.5 -50q51 0 90.5 18t60 46.5t30 63.5t0 69.5t-30 63t-60 46.5t-90.5 18h-101v299h97q37 0 66 14t43.5 36t21.5 48.5t0 53t-21.5 48.5t-42.5 36t-63 14q-60 0 -93.5 -22t-33.5 -62h-326q-4 96 30.5 171.5t98 121.5t146 70t178.5 24 q113 0 205 -35.5t148.5 -94.5t87 -132.5t30.5 -153.5q0 -75 -32.5 -148t-92.5 -118q107 -58 157 -144.5t50 -209.5q0 -199 -143 -325t-410 -126q-236 0 -369 127.5t-133 366.5z"/>
<glyph unicode="и" horiz-adv-x="1601" d="M184 -2v1436h375v-703l725 709h133v-1440h-379v705l-723 -707h-131z"/>
<glyph unicode="й" horiz-adv-x="1597" d="M195 -2h131l723 707v-705h378v1440h-133l-725 -709v703h-374v-1436zM508 1862q141 16 211 20q9 -113 141 -113q67 0 105 25.5t47 87.5q70 -4 211 -20q-6 -172 -97.5 -261.5t-261.5 -89.5q-167 0 -259.5 90t-96.5 261z"/>
<glyph unicode="к" horiz-adv-x="1449" d="M184 0v1434h373v-543h27q101 0 170 31t104 70t52.5 119.5t19.5 131t2 153.5v13.5v11.5v13h377v-23q0 -63 -0.5 -95t-2.5 -90t-7 -90.5t-14.5 -83.5t-23 -84t-34.5 -76t-48 -75t-64.5 -66t-82.5 -63l389 -631v-57h-407l-316 555q-49 -8 -141 -8v-547h-373z"/>
<glyph unicode="л" d="M2 0v53l645 1399h158l647 -1399v-53h-358l-369 840l-365 -840h-358z"/>
<glyph unicode="м" horiz-adv-x="1761" d="M180 0v1438h135l562 -623l571 623h131v-1438h-375v639l-305 -320h-41l-303 320v-639h-375z"/>
<glyph unicode="н" horiz-adv-x="1560" d="M184 0v1434h375v-521h442v521h375v-1434h-375v575h-442v-575h-375z"/>
<glyph unicode="о" horiz-adv-x="1658" d="M94 715q0 179 63 324t166.5 234t236 137.5t270 48.5t270 -48.5t236 -137.5t166.5 -234t63 -324q0 -180 -63 -325t-166.5 -234.5t-236 -138t-270 -48.5t-270 48.5t-236 138t-166.5 234.5t-63 325zM471 715q0 -94 31 -170t81.5 -123t115 -72t132 -25t132 25t115 72 t81.5 123t31 170q0 93 -31 168.5t-81.5 122t-115 71.5t-132 25t-132 -25t-115 -71.5t-81.5 -122t-31 -168.5z"/>
<glyph unicode="п" horiz-adv-x="1560" d="M184 0v1434h1192v-1434h-375v1096h-442v-1096h-375z"/>
<glyph unicode="р" horiz-adv-x="1421" d="M182 0v1434h631q111 0 203.5 -37t152.5 -98.5t101.5 -141.5t50.5 -168.5t0 -177t-50.5 -168.5t-101.5 -141.5t-152.5 -98t-203.5 -36.5h-264v-367h-367zM549 696h262q41 0 74.5 22.5t51 58.5t26 79.5t1 87.5t-24.5 80t-50.5 59t-77.5 23q-38 1 -82.5 1t-98 -0.5 t-81.5 -0.5v-410z"/>
<glyph unicode="с" horiz-adv-x="1609" d="M96 717q1 142 42.5 263t112 206t164.5 145.5t199.5 89.5t216.5 29q91 0 179 -19.5t171 -62.5t148.5 -105.5t112.5 -154.5t63 -203h-360q-74 211 -314 211q-161 0 -258.5 -110t-97.5 -289q0 -106 43 -196t125.5 -145.5t187.5 -56.5q120 0 205.5 59.5t114.5 172.5h360 q-15 -118 -61.5 -214t-112.5 -160.5t-150 -108t-173 -63t-183 -19.5q-111 -1 -216.5 28t-199.5 89t-164.5 145t-112 206t-42.5 263z"/>
<glyph unicode="т" horiz-adv-x="1150" d="M41 1106v328h1065v-328h-350v-1106h-363v1106h-352z"/>
<glyph unicode="у" horiz-adv-x="1361" d="M12 1378v56h410l270 -529h10l246 529h398v-56l-680 -1378h-396v39l226 463z"/>
<glyph unicode="ф" horiz-adv-x="1888" d="M94 719q0 578 674 600v121h352v-121q674 -22 674 -600q0 -130 -35 -232.5t-95.5 -169.5t-148 -112t-184.5 -65.5t-213 -24.5v-121h-348v121q-116 4 -213 24.5t-184.5 65.5t-148 112t-95.5 169.5t-35 232.5zM469 719q0 -250 305 -266v530q-305 -12 -305 -264zM1114 453 q305 16 305 266q0 252 -305 264v-530z"/>
<glyph unicode="х" horiz-adv-x="1378" d="M25 0v55l462 705l-413 618v56h381l227 -373h10l230 373h378v-56l-413 -618l465 -705v-55h-396l-262 451h-12l-262 -451h-395z"/>
<glyph unicode="ц" horiz-adv-x="1533" d="M182 0v1434h375v-1096h416v1096h375v-1117h145v-479h-301v162h-1010z"/>
<glyph unicode="ч" horiz-adv-x="1427" d="M121 1257v177h377v-177q0 -60 2 -100t8.5 -87t19 -77t34.5 -60t54 -47t78.5 -27.5t106.5 -10.5h71v586h373v-1434h-373v500h-73q-186 0 -316 46.5t-210 143.5t-116 235.5t-36 331.5z"/>
<glyph unicode="ш" horiz-adv-x="2183" d="M184 0v1434h375v-1096h346v1096h375v-1096h346v1096h375v-1434h-1817z"/>
<glyph unicode="щ" horiz-adv-x="2183" d="M184 0v1434h375v-1096h346v1096h375v-1096h346v1096h375v-1117h145v-479h-301v162h-1661z"/>
<glyph unicode="ъ" horiz-adv-x="1488" d="M35 1106v328h581v-428h265q111 0 203.5 -34.5t152.5 -92.5t101.5 -133.5t50.5 -158.5t0 -166.5t-50.5 -159t-101.5 -133.5t-152.5 -93t-203.5 -35h-631v1106h-215zM616 328q28 0 81.5 -0.5t98.5 -0.5t83 1q44 0 77.5 19.5t50.5 50.5t24.5 68t-1 74t-26 67.5t-51 49.5 t-74.5 19h-263v-348z"/>
<glyph unicode="ы" horiz-adv-x="2146" d="M182 0v1434h367v-428h264q111 0 203.5 -34.5t152.5 -92.5t101.5 -133.5t50.5 -158.5t0 -166.5t-50.5 -159t-101.5 -133.5t-152.5 -93t-203.5 -35h-631zM549 328h262q44 0 77.5 19.5t50.5 50.5t24.5 68t-1 74t-26 67.5t-51 49.5t-74.5 19h-262v-348zM1597 0v1434h367 v-1434h-367z"/>
<glyph unicode="ь" horiz-adv-x="1421" d="M182 0v1434h367v-428h264q111 0 203.5 -34.5t152.5 -92.5t101.5 -133.5t50.5 -158.5t0 -166.5t-50.5 -159t-101.5 -133.5t-152.5 -93t-203.5 -35h-631zM549 328h262q44 0 77.5 19.5t50.5 50.5t24.5 68t-1 74t-26 67.5t-51 49.5t-74.5 19h-262v-348z"/>
<glyph unicode="э" horiz-adv-x="1589" d="M84 551h360q29 -113 114.5 -172.5t205.5 -59.5q119 1 208 67t128 173h-465v309h471q-35 115 -126.5 181.5t-215.5 66.5q-239 0 -313 -211h-361q16 111 63 203t112.5 154.5t148.5 105.5t171 62.5t179 19.5q111 0 216.5 -29t199.5 -89.5t164.5 -145.5t112 -206t42.5 -263 q-1 -142 -42.5 -263t-112 -206t-164.5 -145t-199.5 -89t-216.5 -28q-94 0 -183 19.5t-173 63t-150 108t-112.5 160.5t-61.5 214z"/>
<glyph unicode="ю" horiz-adv-x="2283" d="M182 0v1434h375v-521h186q26 116 83.5 212t134.5 161.5t172 108.5t195.5 58.5t203.5 5t198.5 -45t179.5 -98t145.5 -148t97.5 -201t36 -251.5q0 -138 -37.5 -256t-101.5 -203t-150.5 -148t-185 -95.5t-204.5 -40t-208 12t-197 68t-170.5 120t-129 175t-72.5 227.5h-176 v-575h-375zM1096 715q0 -94 31 -170t81.5 -123t115 -72t132 -25t132 25t115 72t81.5 123t31 170q0 93 -31 168.5t-81.5 122t-115 71.5t-132 25t-132 -25t-115 -71.5t-81.5 -122t-31 -168.5z"/>
<glyph unicode="я" horiz-adv-x="1435" d="M41 0v53l281 455q-66 45 -113.5 110t-71.5 138t-26.5 152.5t15.5 154t60.5 142.5t102.5 118.5t147 80.5t189 30h628v-1434h-366v422h-191l-245 -422h-410zM474.5 966q-7.5 -38 1 -75.5t26 -68.5t50 -50.5t73.5 -19.5h262v354h-262q-43 0 -76 -20t-50 -51t-24.5 -69z"/>
<glyph unicode="ё" horiz-adv-x="1228" d="M182 0v1434h895v-328h-530v-203h487v-325h-487v-252h549v-326h-914zM190 1696q0 81 54.5 129.5t136.5 48.5t137 -48.5t55 -129.5q0 -77 -55.5 -125.5t-136.5 -48.5t-136 48.5t-55 125.5zM700 1696q0 81 54.5 129.5t136.5 48.5q83 0 136.5 -48t53.5 -130 q0 -77 -53.5 -125.5t-136.5 -48.5q-81 0 -136 48.5t-55 125.5z"/>
<glyph unicode="ѓ" horiz-adv-x="1175" d="M182 0v1434h893v-328h-520v-1106h-373zM494 1530v33l155 342l312 -105v-31l-211 -239h-256z"/>
<glyph unicode="є" horiz-adv-x="1585" d="M92 717q1 142 42.5 263t112 206t164.5 145.5t199.5 89.5t216.5 29q91 0 179 -19.5t171 -62.5t148.5 -105.5t112.5 -154.5t63 -203h-360q-74 211 -314 211q-124 0 -215.5 -66.5t-126.5 -181.5h471v-309h-464q39 -107 127.5 -173t207.5 -67q120 0 205.5 59.5t114.5 172.5 h360q-15 -118 -61.5 -214t-112.5 -160.5t-150 -108t-173 -63t-183 -19.5q-111 -1 -216.5 28t-199.5 89t-164.5 145t-112 206t-42.5 263z"/>
<glyph unicode="ѕ" horiz-adv-x="1327" d="M82 438h354q0 -52 46 -87t112 -43.5t132.5 -1t112.5 40.5t46 81q0 36 -19.5 60t-59.5 37t-80.5 19t-102.5 9q-122 9 -213 35t-162 76.5t-108 132.5t-38 196q-2 127 57 227t156 151.5t214.5 75.5t235.5 0t215 -75.5t157.5 -151.5t58.5 -227h-348q0 54 -39.5 89.5t-97 43 t-115 -1.5t-100 -43.5t-45.5 -83.5q-2 -32 9 -55.5t29.5 -38.5t51 -25.5t63 -15.5t74.5 -10q59 -6 95 -11t90.5 -14t88 -19.5t78 -28t71.5 -38.5t56.5 -52t46 -68.5t27 -86.5t10.5 -108q0 -124 -64.5 -222t-167 -149t-227 -75.5t-248 -0.5t-226 75.5t-165.5 152.5t-61 231z "/>
<glyph unicode="і" horiz-adv-x="847" d="M63 0v322h183v792h-168v320h698v-320h-168v-792h183v-322h-728z"/>
<glyph unicode="ї" horiz-adv-x="847" d="M-45 1722q0 86 58 137.5t145 51.5t145.5 -51.5t58.5 -137.5q0 -83 -58.5 -134.5t-145.5 -51.5t-145 51.5t-58 134.5zM63 0v322h183v792h-168v320h698v-320h-168v-792h183v-322h-728zM498 1722q0 86 57.5 137.5t144.5 51.5q88 0 145.5 -51.5t57.5 -137.5 q0 -83 -57.5 -134.5t-145.5 -51.5q-86 0 -144 51.5t-58 134.5z"/>
<glyph unicode="ј" horiz-adv-x="1355" d="M94 477v187h346v-181q0 -82 54 -127t137 -45q82 0 130 44t48 128v625h-209v326h584v-957q0 -114 -45 -208.5t-121 -156t-176 -95t-211 -33.5q-149 0 -270 57t-194 170.5t-73 265.5z"/>
<glyph unicode="ќ" horiz-adv-x="1449" d="M184 0v1434h373v-543h27q101 0 170 31t104 70t52.5 119.5t19.5 131t2 153.5v13.5v11.5v13h377v-23q0 -63 -0.5 -95t-2.5 -90t-7 -90.5t-14.5 -83.5t-23 -84t-34.5 -76t-48 -75t-64.5 -66t-82.5 -63l389 -631v-57h-407l-316 555q-49 -8 -141 -8v-547h-373zM580 1536v33 l155 342l312 -105v-30l-211 -240h-256z"/>
<glyph unicode="ў" horiz-adv-x="1361" d="M12 1378v56h410l270 -529h10l246 529h398v-56l-680 -1378h-396v39l226 463zM319 1862q141 16 211 20q9 -113 142 -113q67 0 104.5 25.5t46.5 87.5q70 -4 211 -20q-6 -172 -97 -261.5t-261 -89.5q-167 0 -260 90t-97 261z"/>
<glyph unicode="џ" horiz-adv-x="1560" d="M184 0v1434h375v-1096h442v1096h375v-1434h-407v-209h-375v209h-410z"/>
<glyph unicode="Ґ" horiz-adv-x="1159" d="M182 0v1434h584v170h309v-498h-520v-1106h-373z"/>
<glyph unicode="ґ" horiz-adv-x="1159" d="M182 0v1434h584v170h309v-498h-520v-1106h-373z"/>
<glyph unicode=" " horiz-adv-x="955"/>
<glyph unicode=" " horiz-adv-x="1911"/>
<glyph unicode=" " horiz-adv-x="955"/>
<glyph unicode=" " horiz-adv-x="1911"/>
<glyph unicode=" " horiz-adv-x="637"/>
<glyph unicode=" " horiz-adv-x="477"/>
<glyph unicode=" " horiz-adv-x="318"/>
<glyph unicode=" " horiz-adv-x="318"/>
<glyph unicode=" " horiz-adv-x="238"/>
<glyph unicode=" " horiz-adv-x="382"/>
<glyph unicode=" " horiz-adv-x="106"/>
<glyph unicode="…" horiz-adv-x="1636" d="M68 174q0 85 58 138t146 53q85 0 143 -53t58 -138q0 -83 -58 -134.5t-143 -51.5q-88 0 -146 51.5t-58 134.5zM594 174q0 85 58.5 138t146.5 53q85 0 142.5 -53t57.5 -138q0 -83 -57.5 -134.5t-142.5 -51.5q-88 0 -146.5 51.5t-58.5 134.5zM1122 174q0 85 58.5 138 t146.5 53q85 0 143 -53t58 -138q0 -83 -58 -134.5t-143 -51.5q-88 0 -146.5 51.5t-58.5 134.5z"/>
<glyph unicode=" " horiz-adv-x="382"/>
<glyph unicode=" " horiz-adv-x="477"/>
<glyph unicode="" horiz-adv-x="1433" d="M0 0v1434h1434v-1434h-1434z"/>
</font>
</defs>
</svg>
